  0
SECTION
  2
HEADER
  9
$ACADVER
  1
AC1018
  9
$ACADMAINTVER
 70
     0
  9
$DWGCODEPAGE
  3
ANSI_950
  9
$TITLE
  1

  9
$SUBJECT
  1

  9
$AUTHOR
  1

  9
$KEYWORDS
  1

  9
$COMMENTS
  1

  9
$LASTSAVEDBY
  1

  9
$REVISIONNUMBER
  1

  9
$INSBASE
 10
0.0
 20
0.0
 30
0.0
  9
$EXTMIN
 10
91.79942868919999
 20
14.83310674270001
 30
0.0
  9
$EXTMAX
 10
993.0595734246915
 20
704.8588649647997
 30
108.7925421138
  9
$LIMMIN
 10
0.0
 20
0.0
  9
$LIMMAX
 10
0.0
 20
0.0
  9
$ORTHOMODE
 70
     1
  9
$REGENMODE
 70
     1
  9
$FILLMODE
 70
     1
  9
$QTEXTMODE
 70
     0
  9
$MIRRTEXT
 70
     1
  9
$LTSCALE
 40
1.0
  9
$ATTMODE
 70
     1
  9
$TEXTSIZE
 40
2.5
  9
$TRACEWID
 40
1.0
  9
$TEXTSTYLE
  7
STANDARD
  9
$CLAYER
  8
0
  9
$CELTYPE
  6
ByLayer
  9
$CECOLOR
 62
   256
  9
$CELTSCALE
 40
1.0
  9
$DISPSILH
 70
     0
  9
$DIMSCALE
 40
1.0
  9
$DIMASZ
 40
5.099999999999996
  9
$DIMEXO
 40
3.399999999999999
  9
$DIMDLI
 40
3.75
  9
$DIMRND
 40
0.0
  9
$DIMDLE
 40
0.0
  9
$DIMEXE
 40
3.399999999999999
  9
$DIMTP
 40
0.0
  9
$DIMTM
 40
0.0
  9
$DIMTXT
 40
11.9944444444
  9
$DIMCEN
 40
2.5
  9
$DIMTSZ
 40
0.0
  9
$DIMTOL
 70
     0
  9
$DIMLIM
 70
     0
  9
$DIMTIH
 70
     1
  9
$DIMTOH
 70
     1
  9
$DIMSE1
 70
     0
  9
$DIMSE2
 70
     0
  9
$DIMTAD
 70
     1
  9
$DIMZIN
 70
     0
  9
$DIMBLK
  1

  9
$DIMASO
 70
     1
  9
$DIMSHO
 70
     1
  9
$DIMPOST
  1

  9
$DIMAPOST
  1

  9
$DIMALT
 70
     0
  9
$DIMALTD
 70
     3
  9
$DIMALTF
 40
0.0393700787
  9
$DIMLFAC
 40
1.0
  9
$DIMTOFL
 70
     1
  9
$DIMTVP
 40
0.0
  9
$DIMTIX
 70
     0
  9
$DIMSOXD
 70
     0
  9
$DIMSAH
 70
     0
  9
$DIMBLK1
  1

  9
$DIMBLK2
  1

  9
$DIMSTYLE
  2
ISO-25
  9
$DIMCLRD
 70
     0
  9
$DIMCLRE
 70
     0
  9
$DIMCLRT
 70
     0
  9
$DIMTFAC
 40
1.0
  9
$DIMGAP
 40
5.1816
  9
$DIMJUST
 70
     0
  9
$DIMSD1
 70
     0
  9
$DIMSD2
 70
     0
  9
$DIMTOLJ
 70
     0
  9
$DIMTZIN
 70
     0
  9
$DIMALTZ
 70
     0
  9
$DIMALTTZ
 70
     0
  9
$DIMUPT
 70
     0
  9
$DIMDEC
 70
     2
  9
$DIMTDEC
 70
     2
  9
$DIMALTU
 70
     2
  9
$DIMALTTD
 70
     3
  9
$DIMTXSTY
  7
STANDARD
  9
$DIMAUNIT
 70
     0
  9
$DIMADEC
 70
     0
  9
$DIMALTRND
 40
0.0
  9
$DIMAZIN
 70
     0
  9
$DIMDSEP
 70
    44
  9
$DIMATFIT
 70
     3
  9
$DIMFRAC
 70
     0
  9
$DIMLDRBLK
  1

  9
$DIMLUNIT
 70
     2
  9
$DIMLWD
 70
    -2
  9
$DIMLWE
 70
    -2
  9
$DIMTMOVE
 70
     0
  9
$LUNITS
 70
     2
  9
$LUPREC
 70
     3
  9
$SKETCHINC
 40
1.0
  9
$FILLETRAD
 40
10.0
  9
$AUNITS
 70
     0
  9
$AUPREC
 70
     0
  9
$MENU
  1
.
  9
$ELEVATION
 40
0.0
  9
$PELEVATION
 40
0.0
  9
$THICKNESS
 40
0.0
  9
$LIMCHECK
 70
     0
  9
$CHAMFERA
 40
10.0
  9
$CHAMFERB
 40
10.0
  9
$CHAMFERC
 40
20.0
  9
$CHAMFERD
 40
0.0
  9
$SKPOLY
 70
     0
  9
$TDCREATE
 40
2456112.715708183
  9
$TDUCREATE
 40
2456112.382374850
  9
$TDUPDATE
 40
2456153.670846528
  9
$TDUUPDATE
 40
2456153.337513194
  9
$TDINDWG
 40
0.0112747801
  9
$TDUSRTIMER
 40
0.0112740625
  9
$USRTIMER
 70
     1
  9
$ANGBASE
 50
0.0
  9
$ANGDIR
 70
     0
  9
$PDMODE
 70
     0
  9
$PDSIZE
 40
-1.0
  9
$PLINEWID
 40
0.0
  9
$SPLFRAME
 70
     0
  9
$SPLINETYPE
 70
     6
  9
$SPLINESEGS
 70
     8
  9
$HANDSEED
  5
6F7
  9
$SURFTAB1
 70
     6
  9
$SURFTAB2
 70
     6
  9
$SURFTYPE
 70
     6
  9
$SURFU
 70
     6
  9
$SURFV
 70
     6
  9
$UCSBASE
  2

  9
$UCSNAME
  2

  9
$UCSORG
 10
0.0
 20
0.0
 30
0.0
  9
$UCSXDIR
 10
1.0
 20
0.0
 30
0.0
  9
$UCSYDIR
 10
0.0
 20
1.0
 30
0.0
  9
$UCSORTHOREF
  2

  9
$UCSORTHOVIEW
 70
     0
  9
$UCSORGTOP
 10
0.0
 20
0.0
 30
0.0
  9
$UCSORGBOTTOM
 10
0.0
 20
0.0
 30
0.0
  9
$UCSORGLEFT
 10
0.0
 20
0.0
 30
0.0
  9
$UCSORGRIGHT
 10
0.0
 20
0.0
 30
0.0
  9
$UCSORGFRONT
 10
0.0
 20
0.0
 30
0.0
  9
$UCSORGBACK
 10
0.0
 20
0.0
 30
0.0
  9
$PUCSBASE
  2

  9
$PUCSNAME
  2

  9
$PUCSORG
 10
0.0
 20
0.0
 30
0.0
  9
$PUCSXDIR
 10
1.0
 20
0.0
 30
0.0
  9
$PUCSYDIR
 10
0.0
 20
1.0
 30
0.0
  9
$PUCSORTHOREF
  2

  9
$PUCSORTHOVIEW
 70
     0
  9
$PUCSORGTOP
 10
0.0
 20
0.0
 30
0.0
  9
$PUCSORGBOTTOM
 10
0.0
 20
0.0
 30
0.0
  9
$PUCSORGLEFT
 10
0.0
 20
0.0
 30
0.0
  9
$PUCSORGRIGHT
 10
0.0
 20
0.0
 30
0.0
  9
$PUCSORGFRONT
 10
0.0
 20
0.0
 30
0.0
  9
$PUCSORGBACK
 10
0.0
 20
0.0
 30
0.0
  9
$USERI1
 70
     0
  9
$USERI2
 70
     0
  9
$USERI3
 70
     0
  9
$USERI4
 70
     0
  9
$USERI5
 70
     0
  9
$USERR1
 40
0.0
  9
$USERR2
 40
0.0
  9
$USERR3
 40
0.0
  9
$USERR4
 40
0.0
  9
$USERR5
 40
0.0
  9
$WORLDVIEW
 70
     1
  9
$SHADEDGE
 70
     3
  9
$SHADEDIF
 70
    70
  9
$TILEMODE
 70
     1
  9
$MAXACTVP
 70
    64
  9
$PINSBASE
 10
0.0
 20
0.0
 30
0.0
  9
$PLIMCHECK
 70
     0
  9
$PEXTMIN
 10
1.000000000000000E+20
 20
1.000000000000000E+20
 30
1.000000000000000E+20
  9
$PEXTMAX
 10
-1.000000000000000E+20
 20
-1.000000000000000E+20
 30
-1.000000000000000E+20
  9
$PLIMMIN
 10
0.0
 20
0.0
  9
$PLIMMAX
 10
420.0
 20
297.0
  9
$UNITMODE
 70
     0
  9
$VISRETAIN
 70
     1
  9
$PLINEGEN
 70
     0
  9
$PSLTSCALE
 70
     1
  9
$TREEDEPTH
 70
  3020
  9
$CMLSTYLE
  2
Standard
  9
$CMLJUST
 70
     0
  9
$CMLSCALE
 40
20.0
  9
$PROXYGRAPHICS
 70
     1
  9
$MEASUREMENT
 70
     1
  9
$CELWEIGHT
370
    -1
  9
$ENDCAPS
280
     0
  9
$JOINSTYLE
280
     0
  9
$LWDISPLAY
290
     1
  9
$INSUNITS
 70
     4
  9
$HYPERLINKBASE
  1

  9
$STYLESHEET
  1

  9
$XEDIT
290
     1
  9
$CEPSNTYPE
380
     0
  9
$PSTYLEMODE
290
     1
  9
$FINGERPRINTGUID
  2
{70543AE6-BA96-49EE-8D0C-B7979C9FDA96}
  9
$VERSIONGUID
  2
{9D519FBD-E1C1-4C72-B098-F5EDADF5D25A}
  9
$EXTNAMES
290
     1
  9
$PSVPSCALE
 40
0.0
  9
$OLESTARTUP
290
     0
  9
$SORTENTS
280
   127
  9
$INDEXCTL
280
     0
  9
$HIDETEXT
280
     0
  9
$XCLIPFRAME
290
     0
  9
$HALOGAP
280
     0
  9
$OBSCOLOR
 70
   257
  9
$OBSLTYPE
280
     0
  9
$INTERSECTIONDISPLAY
280
     0
  9
$INTERSECTIONCOLOR
 70
   257
  9
$DIMASSOC
280
     1
  9
$PROJECTNAME
  1

  0
ENDSEC
  0
SECTION
  2
CLASSES
  0
CLASS
  1
ACDBDICTIONARYWDFLT
  2
AcDbDictionaryWithDefault
  3
ObjectDBX Classes
 90
        0
 91
        1
280
     0
281
     0
  0
CLASS
  1
SORTENTSTABLE
  2
AcDbSortentsTable
  3
ObjectDBX Classes
 90
        0
 91
        2
280
     0
281
     0
  0
CLASS
  1
DICTIONARYVAR
  2
AcDbDictionaryVar
  3
ObjectDBX Classes
 90
        0
 91
        2
280
     0
281
     0
  0
ENDSEC
  0
SECTION
  2
TABLES
  0
TABLE
  2
VPORT
  5
8
330
0
100
AcDbSymbolTable
 70
     3
  0
VPORT
  5
6F6
330
8
100
AcDbSymbolTableRecord
100
AcDbViewportTableRecord
  2
*Active
 70
     0
 10
0.0
 20
0.0
 11
1.0
 21
1.0
 12
546.2250917576477
 22
369.9445940071466
 13
0.0
 23
0.0
 14
10.0
 24
10.0
 15
10.0
 25
10.0
 16
0.0
 26
0.0
 36
1.0
 17
0.0
 27
0.0
 37
0.0
 40
763.2446806988777
 41
1.826086956521739
 42
50.0
 43
0.0
 44
0.0
 50
0.0
 51
0.0
 71
     0
 72
  2000
 73
     1
 74
     3
 75
     0
 76
     0
 77
     0
 78
     0
281
     0
 65
     1
110
0.0
120
0.0
130
0.0
111
1.0
121
0.0
131
0.0
112
0.0
122
1.0
132
0.0
 79
     0
146
0.0
  0
ENDTAB
  0
TABLE
  2
LTYPE
  5
5
330
0
100
AcDbSymbolTable
 70
     6
  0
LTYPE
  5
14
330
5
100
AcDbSymbolTableRecord
100
AcDbLinetypeTableRecord
  2
ByBlock
 70
     0
  3

 72
    65
 73
     0
 40
0.0
  0
LTYPE
  5
15
330
5
100
AcDbSymbolTableRecord
100
AcDbLinetypeTableRecord
  2
ByLayer
 70
     0
  3

 72
    65
 73
     0
 40
0.0
  0
LTYPE
  5
16
330
5
100
AcDbSymbolTableRecord
100
AcDbLinetypeTableRecord
  2
Continuous
 70
     0
  3
Solid line
 72
    65
 73
     0
 40
0.0
  0
LTYPE
  5
2A
330
5
100
AcDbSymbolTableRecord
100
AcDbLinetypeTableRecord
  2
HIDDEN
 70
     0
  3
Hidden __ __ __ __ __ __ __ __ __ __ __ __ __ __
 72
    65
 73
     2
 40
1.905
 49
1.27
 74
     0
 49
-0.635
 74
     0
  0
LTYPE
  5
2B
330
5
100
AcDbSymbolTableRecord
100
AcDbLinetypeTableRecord
  2
PHANTOM
 70
     0
  3
Phantom ______  __  __  ______  __  __  ______
 72
    65
 73
     6
 40
12.7
 49
6.349999999999997
 74
     0
 49
-1.27
 74
     0
 49
1.27
 74
     0
 49
-1.27
 74
     0
 49
1.27
 74
     0
 49
-1.27
 74
     0
  0
LTYPE
  5
2C
330
5
100
AcDbSymbolTableRecord
100
AcDbLinetypeTableRecord
  2
CENTER
 70
     0
  3
Center ____ _ ____ _ ____ _ ____ _ ____ _ ____
 72
    65
 73
     4
 40
10.16
 49
6.349999999999997
 74
     0
 49
-1.27
 74
     0
 49
1.27
 74
     0
 49
-1.27
 74
     0
  0
LTYPE
  5
2D
330
5
100
AcDbSymbolTableRecord
100
AcDbLinetypeTableRecord
  2
CENTERX2
 70
     0
  3
Center (2x) ________  __  ________  __  _____
 72
    65
 73
     4
 40
20.32
 49
12.7
 74
     0
 49
-2.54
 74
     0
 49
2.54
 74
     0
 49
-2.54
 74
     0
  0
LTYPE
  5
2E
330
5
100
AcDbSymbolTableRecord
100
AcDbLinetypeTableRecord
  2
DOT2
 70
     0
  3
Dot (.5x) ........................................
 72
    65
 73
     2
 40
0.635
 49
0.0
 74
     0
 49
-0.635
 74
     0
  0
ENDTAB
  0
TABLE
  2
LAYER
  5
2
330
0
100
AcDbSymbolTable
 70
     2
  0
LAYER
  5
10
330
2
100
AcDbSymbolTableRecord
100
AcDbLayerTableRecord
  2
0
 70
     0
 62
     7
  6
Continuous
370
    -3
390
F
  0
LAYER
  5
622
330
2
100
AcDbSymbolTableRecord
100
AcDbLayerTableRecord
  2
Defpoints
 70
     0
 62
     7
  6
Continuous
290
     0
370
    -3
390
F
  0
ENDTAB
  0
TABLE
  2
STYLE
  5
3
330
0
100
AcDbSymbolTable
 70
     6
  0
STYLE
  5
11
330
3
100
AcDbSymbolTableRecord
100
AcDbTextStyleTableRecord
  2
STANDARD
 70
     0
 40
0.0
 41
1.0
 50
0.0
 71
     0
 42
2.5
  3
GOTHIC.TTF
  4

1001
ACAD
1000
Century Gothic
1071
       34
  0
STYLE
  5
2F
330
3
100
AcDbSymbolTableRecord
100
AcDbTextStyleTableRecord
  2
SLDTEXTSTYLE0
 70
     0
 40
0.0
 41
1.0
 50
0.0
 71
     0
 42
0.2
  3
SWTXT.TTF
  4

1001
ACAD
1000
SWTxt
1071
        2
  0
STYLE
  5
34
330
3
100
AcDbSymbolTableRecord
100
AcDbTextStyleTableRecord
  2
SLDTEXTSTYLE1
 70
     0
 40
0.0
 41
0.913
 50
0.0
 71
     0
 42
0.2
  3
GOTHIC.TTF
  4

1001
ACAD
1000
Century Gothic
1071
       34
  0
STYLE
  5
3F
330
3
100
AcDbSymbolTableRecord
100
AcDbTextStyleTableRecord
  2
SLDTEXTSTYLE2
 70
     0
 40
0.0
 41
1.0
 50
0.0
 71
     0
 42
0.2
  3
TAHOMA.TTF
  4

1001
ACAD
1000
Tahoma
1071
       34
  0
STYLE
  5
1A6
330
3
100
AcDbSymbolTableRecord
100
AcDbTextStyleTableRecord
  2
SLDTEXTSTYLE3
 70
     0
 40
0.0
 41
0.9929999999999999
 50
0.0
 71
     0
 42
0.2
  3
SWTXT.TTF
  4

1001
ACAD
1000
SWTxt
1071
        2
  0
STYLE
  5
5D2
330
3
100
AcDbSymbolTableRecord
100
AcDbTextStyleTableRecord
  2
SLDTEXTSTYLE4
 70
     0
 40
0.0
 41
0.913
 50
0.0
 71
     0
 42
0.2
  3
GOTHICB.TTF
  4

1001
ACAD
1000
Century Gothic
1071
 33554466
  0
ENDTAB
  0
TABLE
  2
VIEW
  5
6
330
0
100
AcDbSymbolTable
 70
     0
  0
ENDTAB
  0
TABLE
  2
UCS
  5
7
330
0
100
AcDbSymbolTable
 70
     0
  0
ENDTAB
  0
TABLE
  2
APPID
  5
9
330
0
100
AcDbSymbolTable
 70
     1
  0
APPID
  5
12
330
9
100
AcDbSymbolTableRecord
100
AcDbRegAppTableRecord
  2
ACAD
 70
     0
  0
ENDTAB
  0
TABLE
  2
DIMSTYLE
  5
A
330
0
100
AcDbSymbolTable
 70
     3
100
AcDbDimStyleTable
 71
     1
340
27
  0
DIMSTYLE
105
27
330
A
100
AcDbSymbolTableRecord
100
AcDbDimStyleTableRecord
  2
ISO-25
 70
     0
 41
2.5
 42
0.625
 43
3.75
 44
1.25
 73
     0
 74
     0
 77
     1
 78
     8
140
2.5
141
2.5
143
0.0393700787
147
0.625
171
     3
172
     1
271
     2
272
     2
274
     3
278
    44
283
     0
284
     8
340
2F
  0
DIMSTYLE
105
1A7
102
{ACAD_REACTORS
330
1A5
330
1B2
330
1BD
330
1C7
330
1D1
330
1DB
330
1E5
330
316
330
320
330
32A
330
334
330
479
330
483
330
48C
330
495
330
49E
330
4A8
330
4B2
330
4BC
330
4C6
330
5A0
330
5AA
330
5B4
330
5BE
330
5C8
102
}
330
A
100
AcDbSymbolTableRecord
100
AcDbDimStyleTableRecord
  2
SLDDIMSTYLE0
 70
     0
 41
5.099999999999996
 44
0.0
 73
     0
 77
     1
 78
    12
140
8.7933954524
147
2.1983488631
173
     1
271
     3
272
     3
284
    12
340
1A6
  0
DIMSTYLE
105
1F6
330
A
100
AcDbSymbolTableRecord
100
AcDbDimStyleTableRecord
  2
SLDDIMSTYLE1
 70
     0
 41
5.099999999999996
 44
0.0
140
5.099999999999996
147
1.274999999999999
173
     1
271
     0
272
     0
340
11
  0
ENDTAB
  0
TABLE
  2
BLOCK_RECORD
  5
1
330
0
100
AcDbSymbolTable
 70
    36
  0
BLOCK_RECORD
  5
1F
102
{ACAD_XDICTIONARY
360
614
102
}
330
1
100
AcDbSymbolTableRecord
100
AcDbBlockTableRecord
  2
*Model_Space
340
22
  0
BLOCK_RECORD
  5
1B
330
1
100
AcDbSymbolTableRecord
100
AcDbBlockTableRecord
  2
*Paper_Space
340
1E
  0
BLOCK_RECORD
  5
23
330
1
100
AcDbSymbolTableRecord
100
AcDbBlockTableRecord
  2
*Paper_Space0
340
26
  0
BLOCK_RECORD
  5
36
102
{ACAD_XDICTIONARY
360
620
102
}
330
1
100
AcDbSymbolTableRecord
100
AcDbBlockTableRecord
  2
SW_NOTE_0
340
0
102
{BLKREFS
331
3B
102
}
  0
BLOCK_RECORD
  5
3C
330
1
100
AcDbSymbolTableRecord
100
AcDbBlockTableRecord
  2
SW_NOTE_1
340
0
102
{BLKREFS
331
44
102
}
  0
BLOCK_RECORD
  5
45
330
1
100
AcDbSymbolTableRecord
100
AcDbBlockTableRecord
  2
SW_TABLEANNOTATION_0
340
0
  0
BLOCK_RECORD
  5
1A8
330
1
100
AcDbSymbolTableRecord
100
AcDbBlockTableRecord
  2
*D4
340
0
  0
BLOCK_RECORD
  5
1B3
330
1
100
AcDbSymbolTableRecord
100
AcDbBlockTableRecord
  2
*D5
340
0
  0
BLOCK_RECORD
  5
1BE
330
1
100
AcDbSymbolTableRecord
100
AcDbBlockTableRecord
  2
*D6
340
0
  0
BLOCK_RECORD
  5
1C8
330
1
100
AcDbSymbolTableRecord
100
AcDbBlockTableRecord
  2
*D7
340
0
  0
BLOCK_RECORD
  5
1D2
330
1
100
AcDbSymbolTableRecord
100
AcDbBlockTableRecord
  2
*D8
340
0
  0
BLOCK_RECORD
  5
1DC
330
1
100
AcDbSymbolTableRecord
100
AcDbBlockTableRecord
  2
*D9
340
0
  0
BLOCK_RECORD
  5
1E6
330
1
100
AcDbSymbolTableRecord
100
AcDbBlockTableRecord
  2
*D10
340
0
  0
BLOCK_RECORD
  5
1F1
102
{ACAD_XDICTIONARY
360
618
102
}
330
1
100
AcDbSymbolTableRecord
100
AcDbBlockTableRecord
  2
SW_NOTE_2
340
0
102
{BLKREFS
331
1F5
102
}
  0
BLOCK_RECORD
  5
1F8
330
1
100
AcDbSymbolTableRecord
100
AcDbBlockTableRecord
  2
SW_NOTE_3
340
0
102
{BLKREFS
331
1FC
102
}
  0
BLOCK_RECORD
  5
317
330
1
100
AcDbSymbolTableRecord
100
AcDbBlockTableRecord
  2
*D13
340
0
  0
BLOCK_RECORD
  5
321
330
1
100
AcDbSymbolTableRecord
100
AcDbBlockTableRecord
  2
*D14
340
0
  0
BLOCK_RECORD
  5
32B
330
1
100
AcDbSymbolTableRecord
100
AcDbBlockTableRecord
  2
*D15
340
0
  0
BLOCK_RECORD
  5
335
330
1
100
AcDbSymbolTableRecord
100
AcDbBlockTableRecord
  2
*D16
340
0
  0
BLOCK_RECORD
  5
47A
330
1
100
AcDbSymbolTableRecord
100
AcDbBlockTableRecord
  2
*D17
340
0
  0
BLOCK_RECORD
  5
484
330
1
100
AcDbSymbolTableRecord
100
AcDbBlockTableRecord
  2
*D18
340
0
  0
BLOCK_RECORD
  5
48D
330
1
100
AcDbSymbolTableRecord
100
AcDbBlockTableRecord
  2
*D19
340
0
  0
BLOCK_RECORD
  5
496
330
1
100
AcDbSymbolTableRecord
100
AcDbBlockTableRecord
  2
*D20
340
0
  0
BLOCK_RECORD
  5
49F
330
1
100
AcDbSymbolTableRecord
100
AcDbBlockTableRecord
  2
*D21
340
0
  0
BLOCK_RECORD
  5
4A9
330
1
100
AcDbSymbolTableRecord
100
AcDbBlockTableRecord
  2
*D22
340
0
  0
BLOCK_RECORD
  5
4B3
330
1
100
AcDbSymbolTableRecord
100
AcDbBlockTableRecord
  2
*D23
340
0
  0
BLOCK_RECORD
  5
4BD
330
1
100
AcDbSymbolTableRecord
100
AcDbBlockTableRecord
  2
*D24
340
0
  0
BLOCK_RECORD
  5
4C7
330
1
100
AcDbSymbolTableRecord
100
AcDbBlockTableRecord
  2
*D25
340
0
  0
BLOCK_RECORD
  5
4D0
330
1
100
AcDbSymbolTableRecord
100
AcDbBlockTableRecord
  2
SW_NOTE_4
340
0
102
{BLKREFS
331
4DA
102
}
  0
BLOCK_RECORD
  5
4DC
330
1
100
AcDbSymbolTableRecord
100
AcDbBlockTableRecord
  2
SW_NOTE_5
340
0
102
{BLKREFS
331
4E0
102
}
  0
BLOCK_RECORD
  5
4E2
330
1
100
AcDbSymbolTableRecord
100
AcDbBlockTableRecord
  2
SW_NOTE_6
340
0
102
{BLKREFS
331
4E6
102
}
  0
BLOCK_RECORD
  5
4E8
330
1
100
AcDbSymbolTableRecord
100
AcDbBlockTableRecord
  2
SW_NOTE_7
340
0
102
{BLKREFS
331
4EC
102
}
  0
BLOCK_RECORD
  5
5A1
330
1
100
AcDbSymbolTableRecord
100
AcDbBlockTableRecord
  2
*D30
340
0
  0
BLOCK_RECORD
  5
5AB
330
1
100
AcDbSymbolTableRecord
100
AcDbBlockTableRecord
  2
*D31
340
0
  0
BLOCK_RECORD
  5
5B5
330
1
100
AcDbSymbolTableRecord
100
AcDbBlockTableRecord
  2
*D32
340
0
  0
BLOCK_RECORD
  5
5BF
330
1
100
AcDbSymbolTableRecord
100
AcDbBlockTableRecord
  2
*D33
340
0
  0
BLOCK_RECORD
  5
5C9
330
1
100
AcDbSymbolTableRecord
100
AcDbBlockTableRecord
  2
*D34
340
0
  0
BLOCK_RECORD
  5
5D4
330
1
100
AcDbSymbolTableRecord
100
AcDbBlockTableRecord
  2
SW_NOTE_8
340
0
102
{BLKREFS
331
5DE
102
}
  0
ENDTAB
  0
ENDSEC
  0
SECTION
  2
BLOCKS
  0
BLOCK
  5
20
330
1F
100
AcDbEntity
  8
0
100
AcDbBlockBegin
  2
*Model_Space
 70
     0
 10
0.0
 20
0.0
 30
0.0
  3
*Model_Space
  1

  0
ENDBLK
  5
21
330
1F
100
AcDbEntity
  8
0
100
AcDbBlockEnd
  0
BLOCK
  5
1C
330
1B
100
AcDbEntity
 67
     1
  8
0
100
AcDbBlockBegin
  2
*Paper_Space
 70
     0
 10
0.0
 20
0.0
 30
0.0
  3
*Paper_Space
  1

  0
ENDBLK
  5
1D
330
1B
100
AcDbEntity
 67
     1
  8
0
100
AcDbBlockEnd
  0
BLOCK
  5
24
330
23
100
AcDbEntity
  8
0
100
AcDbBlockBegin
  2
*Paper_Space0
 70
     0
 10
0.0
 20
0.0
 30
0.0
  3
*Paper_Space0
  1

  0
ENDBLK
  5
25
330
23
100
AcDbEntity
  8
0
100
AcDbBlockEnd
  0
BLOCK
  5
37
330
36
100
AcDbEntity
  8
0
100
AcDbBlockBegin
  2
SW_NOTE_0
 70
     0
 10
0.0
 20
0.0
 30
0.0
  3
SW_NOTE_0
  1

  0
MTEXT
  5
39
330
36
100
AcDbEntity
  8
0
  6
Continuous
 62
     0
370
     0
100
AcDbMText
 10
0.0
 20
15.20039062499995
 30
0.0
 40
11.9
 41
0.0
 71
     1
 72
     1
  1
\U+8a3b1.\U+5916\U+7f6e\U+5f0fsensor
  7
SLDTEXTSTYLE1
 73
     1
 44
1.0
1001
ACAD
1000
MTEXTBEGIN
1070
    73
1070
     1
1070
    44
1040
1.0
1070
    74
1070
     0
1000
MTEXTEND
  0
MTEXT
  5
3A
330
36
100
AcDbEntity
  8
0
  6
Continuous
 62
     0
370
     0
100
AcDbMText
 10
0.0
 20
-0.1869707785999708
 30
0.0
 40
11.9
 41
0.0
 71
     1
 72
     1
  1
    2.\U+9069\U+7528\U+99ac\U+905450W.100W.200W.
  7
SLDTEXTSTYLE1
 73
     1
 44
1.0
1001
ACAD
1000
MTEXTBEGIN
1070
    73
1070
     1
1070
    44
1040
1.0
1070
    74
1070
     0
1000
MTEXTEND
  0
ENDBLK
  5
38
330
36
100
AcDbEntity
  8
0
100
AcDbBlockEnd
  0
BLOCK
  5
3D
330
3C
100
AcDbEntity
  8
0
100
AcDbBlockBegin
  2
SW_NOTE_1
 70
     0
 10
0.0
 20
0.0
 30
0.0
  3
SW_NOTE_1
  1

  0
MTEXT
  5
40
330
3C
100
AcDbEntity
  8
0
  6
Continuous
 62
     0
370
     0
100
AcDbMText
 10
0.0
 20
12.5683165709
 30
0.0
 40
9.895416666699999
 41
0.0
 71
     1
 72
     1
  1
SENSOR\U+51fa\U+7dda\U+865f\U+6578\U+5982\U+4e0b:
  7
SLDTEXTSTYLE2
 73
     1
 44
1.0
1001
ACAD
1000
MTEXTBEGIN
1070
    73
1070
     1
1070
    44
1040
1.0
1070
    74
1070
     0
1000
MTEXTEND
  0
MTEXT
  5
41
330
3C
100
AcDbEntity
  8
0
  6
Continuous
 62
     0
370
     0
100
AcDbMText
 10
0.0
 20
-0.5687019623
 30
0.0
 40
8.9958333333
 41
0.0
 71
     1
 72
     1
  1
     1.\U+6b63\U+6975\U+9650  +LS
  7
SLDTEXTSTYLE2
 73
     1
 44
1.0
1001
ACAD
1000
MTEXTBEGIN
1070
    73
1070
     1
1070
    44
1040
1.0
1070
    74
1070
     0
1000
MTEXTEND
  0
MTEXT
  5
42
330
3C
100
AcDbEntity
  8
0
  6
Continuous
 62
     0
370
     0
100
AcDbMText
 10
0.0
 20
-12.5631462618
 30
0.0
 40
8.9958333333
 41
0.0
 71
     1
 72
     1
  1
     2.\U+539f\U+9ede     HOME
  7
SLDTEXTSTYLE2
 73
     1
 44
1.0
1001
ACAD
1000
MTEXTBEGIN
1070
    73
1070
     1
1070
    44
1040
1.0
1070
    74
1070
     0
1000
MTEXTEND
  0
MTEXT
  5
43
330
3C
100
AcDbEntity
  8
0
  6
Continuous
 62
     0
370
     0
100
AcDbMText
 10
0.0
 20
-24.5575905613
 30
0.0
 40
8.9958333333
 41
0.0
 71
     1
 72
     1
  1
     3.\U+8ca0\U+6975\U+9650  -LS         
  7
SLDTEXTSTYLE2
 73
     1
 44
1.0
1001
ACAD
1000
MTEXTBEGIN
1070
    73
1070
     1
1070
    44
1040
1.0
1070
    74
1070
     0
1000
MTEXTEND
  0
ENDBLK
  5
3E
330
3C
100
AcDbEntity
  8
0
100
AcDbBlockEnd
  0
BLOCK
  5
46
330
45
100
AcDbEntity
  8
0
100
AcDbBlockBegin
  2
SW_TABLEANNOTATION_0
 70
     0
 10
0.0
 20
0.0
 30
0.0
  3
SW_TABLEANNOTATION_0
  1

  0
LINE
  5
48
330
45
100
AcDbEntity
  8
0
  6
Continuous
 62
     0
370
     0
100
AcDbLine
 10
0.0
 20
0.0
 30
0.0
 11
0.0
 21
-146.5300337336
 31
0.0
  0
LINE
  5
49
330
45
100
AcDbEntity
  8
0
  6
Continuous
 62
     0
370
     0
100
AcDbLine
 10
0.0
 20
-146.5300337336
 30
0.0
 11
833.0
 21
-146.5300337336
 31
0.0
  0
LINE
  5
4A
330
45
100
AcDbEntity
  8
0
  6
Continuous
 62
     0
370
     0
100
AcDbLine
 10
833.0
 20
-146.5300337336
 30
0.0
 11
833.0
 21
0.0
 31
0.0
  0
LINE
  5
4B
330
45
100
AcDbEntity
  8
0
  6
Continuous
 62
     0
370
     0
100
AcDbLine
 10
833.0
 20
0.0
 30
0.0
 11
0.0
 21
0.0
 31
0.0
  0
LINE
  5
4C
330
45
100
AcDbEntity
  8
0
  6
Continuous
 62
     0
370
     0
100
AcDbLine
 10
85.0
 20
0.0
 30
0.0
 11
85.0
 21
-146.5300337336
 31
0.0
  0
LINE
  5
4D
330
45
100
AcDbEntity
  8
0
  6
Continuous
 62
     0
370
     0
100
AcDbLine
 10
153.0
 20
0.0
 30
0.0
 11
153.0
 21
-146.5300337336
 31
0.0
  0
LINE
  5
4E
330
45
100
AcDbEntity
  8
0
  6
Continuous
 62
     0
370
     0
100
AcDbLine
 10
221.0
 20
0.0
 30
0.0
 11
221.0
 21
-146.5300337336
 31
0.0
  0
LINE
  5
4F
330
45
100
AcDbEntity
  8
0
  6
Continuous
 62
     0
370
     0
100
AcDbLine
 10
289.0
 20
0.0
 30
0.0
 11
289.0
 21
-146.5300337336
 31
0.0
  0
LINE
  5
50
330
45
100
AcDbEntity
  8
0
  6
Continuous
 62
     0
370
     0
100
AcDbLine
 10
357.0
 20
0.0
 30
0.0
 11
357.0
 21
-146.5300337336
 31
0.0
  0
LINE
  5
51
330
45
100
AcDbEntity
  8
0
  6
Continuous
 62
     0
370
     0
100
AcDbLine
 10
425.0
 20
0.0
 30
0.0
 11
425.0
 21
-146.5300337336
 31
0.0
  0
LINE
  5
52
330
45
100
AcDbEntity
  8
0
  6
Continuous
 62
     0
370
     0
100
AcDbLine
 10
493.0
 20
0.0
 30
0.0
 11
493.0
 21
-146.5300337336
 31
0.0
  0
LINE
  5
53
330
45
100
AcDbEntity
  8
0
  6
Continuous
 62
     0
370
     0
100
AcDbLine
 10
561.0
 20
0.0
 30
0.0
 11
561.0
 21
-146.5300337336
 31
0.0
  0
LINE
  5
54
330
45
100
AcDbEntity
  8
0
  6
Continuous
 62
     0
370
     0
100
AcDbLine
 10
629.0
 20
0.0
 30
0.0
 11
629.0
 21
-146.5300337336
 31
0.0
  0
LINE
  5
55
330
45
100
AcDbEntity
  8
0
  6
Continuous
 62
     0
370
     0
100
AcDbLine
 10
697.0
 20
0.0
 30
0.0
 11
697.0
 21
-146.5300337336
 31
0.0
  0
LINE
  5
56
330
45
100
AcDbEntity
  8
0
  6
Continuous
 62
     0
370
     0
100
AcDbLine
 10
765.0
 20
0.0
 30
0.0
 11
765.0
 21
-146.5300337336
 31
0.0
  0
LINE
  5
57
330
45
100
AcDbEntity
  8
0
  6
Continuous
 62
     0
370
     0
100
AcDbLine
 10
0.0
 20
-24.1300337336
 30
0.0
 11
833.0
 21
-24.1300337336
 31
0.0
  0
LINE
  5
58
330
45
100
AcDbEntity
  8
0
  6
Continuous
 62
     0
370
     0
100
AcDbLine
 10
0.0
 20
-44.5300337336
 30
0.0
 11
833.0
 21
-44.5300337336
 31
0.0
  0
LINE
  5
59
330
45
100
AcDbEntity
  8
0
  6
Continuous
 62
     0
370
     0
100
AcDbLine
 10
0.0
 20
-64.9300337336
 30
0.0
 11
833.0
 21
-64.9300337336
 31
0.0
  0
LINE
  5
5A
330
45
100
AcDbEntity
  8
0
  6
Continuous
 62
     0
370
     0
100
AcDbLine
 10
0.0
 20
-85.33003373359999
 30
0.0
 11
833.0
 21
-85.33003373359999
 31
0.0
  0
LINE
  5
5B
330
45
100
AcDbEntity
  8
0
  6
Continuous
 62
     0
370
     0
100
AcDbLine
 10
0.0
 20
-105.7300337336
 30
0.0
 11
833.0
 21
-105.7300337336
 31
0.0
  0
LINE
  5
5C
330
45
100
AcDbEntity
  8
0
  6
Continuous
 62
     0
370
     0
100
AcDbLine
 10
0.0
 20
-126.1300337336
 30
0.0
 11
833.0
 21
-126.1300337336
 31
0.0
  0
MTEXT
  5
5D
330
45
100
AcDbEntity
  8
0
  6
Continuous
 62
     0
370
     0
100
AcDbMText
 10
9.4969532639
 20
-7.2371125987
 30
0.0
 40
9.895416666699999
 41
0.0
 71
     1
 72
     1
  1
\U+884c\U+7a0bStroke
  7
SLDTEXTSTYLE1
 73
     1
 44
1.0
1001
ACAD
1000
MTEXTBEGIN
1070
    73
1070
     1
1070
    44
1040
1.0
1070
    74
1070
     0
1000
MTEXTEND
  0
MTEXT
  5
5E
330
45
100
AcDbEntity
  8
0
  6
Continuous
 62
     0
370
     0
100
AcDbMText
 10
105.8108333088
 20
-6.0649069436
 30
0.0
 40
11.9
 41
0.0
 71
     1
 72
     1
  1
100
  7
SLDTEXTSTYLE1
 73
     1
 44
1.0
1001
ACAD
1000
MTEXTBEGIN
1070
    73
1070
     1
1070
    44
1040
1.0
1070
    74
1070
     0
1000
MTEXTEND
  0
MTEXT
  5
5F
330
45
100
AcDbEntity
  8
0
  6
Continuous
 62
     0
370
     0
100
AcDbMText
 10
173.8108333088
 20
-6.0649069436
 30
0.0
 40
11.9
 41
0.0
 71
     1
 72
     1
  1
150
  7
SLDTEXTSTYLE1
 73
     1
 44
1.0
1001
ACAD
1000
MTEXTBEGIN
1070
    73
1070
     1
1070
    44
1040
1.0
1070
    74
1070
     0
1000
MTEXTEND
  0
MTEXT
  5
60
330
45
100
AcDbEntity
  8
0
  6
Continuous
 62
     0
370
     0
100
AcDbMText
 10
241.8108333088
 20
-6.0649069436
 30
0.0
 40
11.9
 41
0.0
 71
     1
 72
     1
  1
200
  7
SLDTEXTSTYLE1
 73
     1
 44
1.0
1001
ACAD
1000
MTEXTBEGIN
1070
    73
1070
     1
1070
    44
1040
1.0
1070
    74
1070
     0
1000
MTEXTEND
  0
MTEXT
  5
61
330
45
100
AcDbEntity
  8
0
  6
Continuous
 62
     0
370
     0
100
AcDbMText
 10
309.8108333088
 20
-6.0649069436
 30
0.0
 40
11.9
 41
0.0
 71
     1
 72
     1
  1
250
  7
SLDTEXTSTYLE1
 73
     1
 44
1.0
1001
ACAD
1000
MTEXTBEGIN
1070
    73
1070
     1
1070
    44
1040
1.0
1070
    74
1070
     0
1000
MTEXTEND
  0
MTEXT
  5
62
330
45
100
AcDbEntity
  8
0
  6
Continuous
 62
     0
370
     0
100
AcDbMText
 10
377.8108333088
 20
-6.0649069436
 30
0.0
 40
11.9
 41
0.0
 71
     1
 72
     1
  1
300
  7
SLDTEXTSTYLE1
 73
     1
 44
1.0
1001
ACAD
1000
MTEXTBEGIN
1070
    73
1070
     1
1070
    44
1040
1.0
1070
    74
1070
     0
1000
MTEXTEND
  0
MTEXT
  5
63
330
45
100
AcDbEntity
  8
0
  6
Continuous
 62
     0
370
     0
100
AcDbMText
 10
445.8108333088
 20
-6.0649069436
 30
0.0
 40
11.9
 41
0.0
 71
     1
 72
     1
  1
350
  7
SLDTEXTSTYLE1
 73
     1
 44
1.0
1001
ACAD
1000
MTEXTBEGIN
1070
    73
1070
     1
1070
    44
1040
1.0
1070
    74
1070
     0
1000
MTEXTEND
  0
MTEXT
  5
64
330
45
100
AcDbEntity
  8
0
  6
Continuous
 62
     0
370
     0
100
AcDbMText
 10
513.8108333087999
 20
-6.0649069436
 30
0.0
 40
11.9
 41
0.0
 71
     1
 72
     1
  1
400
  7
SLDTEXTSTYLE1
 73
     1
 44
1.0
1001
ACAD
1000
MTEXTBEGIN
1070
    73
1070
     1
1070
    44
1040
1.0
1070
    74
1070
     0
1000
MTEXTEND
  0
MTEXT
  5
65
330
45
100
AcDbEntity
  8
0
  6
Continuous
 62
     0
370
     0
100
AcDbMText
 10
581.8108333087999
 20
-6.0649069436
 30
0.0
 40
11.9
 41
0.0
 71
     1
 72
     1
  1
450
  7
SLDTEXTSTYLE1
 73
     1
 44
1.0
1001
ACAD
1000
MTEXTBEGIN
1070
    73
1070
     1
1070
    44
1040
1.0
1070
    74
1070
     0
1000
MTEXTEND
  0
MTEXT
  5
66
330
45
100
AcDbEntity
  8
0
  6
Continuous
 62
     0
370
     0
100
AcDbMText
 10
649.8108333087999
 20
-6.0649069436
 30
0.0
 40
11.9
 41
0.0
 71
     1
 72
     1
  1
500
  7
SLDTEXTSTYLE1
 73
     1
 44
1.0
1001
ACAD
1000
MTEXTBEGIN
1070
    73
1070
     1
1070
    44
1040
1.0
1070
    74
1070
     0
1000
MTEXTEND
  0
MTEXT
  5
67
330
45
100
AcDbEntity
  8
0
  6
Continuous
 62
     0
370
     0
100
AcDbMText
 10
717.8108333088
 20
-6.0649069436
 30
0.0
 40
11.9
 41
0.0
 71
     1
 72
     1
  1
550
  7
SLDTEXTSTYLE1
 73
     1
 44
1.0
1001
ACAD
1000
MTEXTBEGIN
1070
    73
1070
     1
1070
    44
1040
1.0
1070
    74
1070
     0
1000
MTEXTEND
  0
MTEXT
  5
68
330
45
100
AcDbEntity
  8
0
  6
Continuous
 62
     0
370
     0
100
AcDbMText
 10
785.8108333088
 20
-6.0649069436
 30
0.0
 40
11.9
 41
0.0
 71
     1
 72
     1
  1
600
  7
SLDTEXTSTYLE1
 73
     1
 44
1.0
1001
ACAD
1000
MTEXTBEGIN
1070
    73
1070
     1
1070
    44
1040
1.0
1070
    74
1070
     0
1000
MTEXTEND
  0
MTEXT
  5
69
330
45
100
AcDbEntity
  8
0
  6
Continuous
 62
     0
370
     0
100
AcDbMText
 10
38.3763195667
 20
-28.3299238104
 30
0.0
 40
11.9
 41
0.0
 71
     1
 72
     1
  1
S
  7
SLDTEXTSTYLE1
 73
     1
 44
1.0
1001
ACAD
1000
MTEXTBEGIN
1070
    73
1070
     1
1070
    44
1040
1.0
1070
    74
1070
     0
1000
MTEXTEND
  0
MTEXT
  5
6A
330
45
100
AcDbEntity
  8
0
  6
Continuous
 62
     0
370
     0
100
AcDbMText
 10
105.8108333088
 20
-28.3299238104
 30
0.0
 40
11.9
 41
0.0
 71
     1
 72
     1
  1
272
  7
SLDTEXTSTYLE1
 73
     1
 44
1.0
1001
ACAD
1000
MTEXTBEGIN
1070
    73
1070
     1
1070
    44
1040
1.0
1070
    74
1070
     0
1000
MTEXTEND
  0
MTEXT
  5
6B
330
45
100
AcDbEntity
  8
0
  6
Continuous
 62
     0
370
     0
100
AcDbMText
 10
173.8108333088
 20
-28.3299238104
 30
0.0
 40
11.9
 41
0.0
 71
     1
 72
     1
  1
322
  7
SLDTEXTSTYLE1
 73
     1
 44
1.0
1001
ACAD
1000
MTEXTBEGIN
1070
    73
1070
     1
1070
    44
1040
1.0
1070
    74
1070
     0
1000
MTEXTEND
  0
MTEXT
  5
6C
330
45
100
AcDbEntity
  8
0
  6
Continuous
 62
     0
370
     0
100
AcDbMText
 10
241.8108333088
 20
-28.3299238104
 30
0.0
 40
11.9
 41
0.0
 71
     1
 72
     1
  1
372
  7
SLDTEXTSTYLE1
 73
     1
 44
1.0
1001
ACAD
1000
MTEXTBEGIN
1070
    73
1070
     1
1070
    44
1040
1.0
1070
    74
1070
     0
1000
MTEXTEND
  0
MTEXT
  5
6D
330
45
100
AcDbEntity
  8
0
  6
Continuous
 62
     0
370
     0
100
AcDbMText
 10
309.8108333088
 20
-28.3299238104
 30
0.0
 40
11.9
 41
0.0
 71
     1
 72
     1
  1
422
  7
SLDTEXTSTYLE1
 73
     1
 44
1.0
1001
ACAD
1000
MTEXTBEGIN
1070
    73
1070
     1
1070
    44
1040
1.0
1070
    74
1070
     0
1000
MTEXTEND
  0
MTEXT
  5
6E
330
45
100
AcDbEntity
  8
0
  6
Continuous
 62
     0
370
     0
100
AcDbMText
 10
377.8108333088
 20
-28.3299238104
 30
0.0
 40
11.9
 41
0.0
 71
     1
 72
     1
  1
472
  7
SLDTEXTSTYLE1
 73
     1
 44
1.0
1001
ACAD
1000
MTEXTBEGIN
1070
    73
1070
     1
1070
    44
1040
1.0
1070
    74
1070
     0
1000
MTEXTEND
  0
MTEXT
  5
6F
330
45
100
AcDbEntity
  8
0
  6
Continuous
 62
     0
370
     0
100
AcDbMText
 10
445.8108333088
 20
-28.3299238104
 30
0.0
 40
11.9
 41
0.0
 71
     1
 72
     1
  1
522
  7
SLDTEXTSTYLE1
 73
     1
 44
1.0
1001
ACAD
1000
MTEXTBEGIN
1070
    73
1070
     1
1070
    44
1040
1.0
1070
    74
1070
     0
1000
MTEXTEND
  0
MTEXT
  5
70
330
45
100
AcDbEntity
  8
0
  6
Continuous
 62
     0
370
     0
100
AcDbMText
 10
513.8108333087999
 20
-28.3299238104
 30
0.0
 40
11.9
 41
0.0
 71
     1
 72
     1
  1
572
  7
SLDTEXTSTYLE1
 73
     1
 44
1.0
1001
ACAD
1000
MTEXTBEGIN
1070
    73
1070
     1
1070
    44
1040
1.0
1070
    74
1070
     0
1000
MTEXTEND
  0
MTEXT
  5
71
330
45
100
AcDbEntity
  8
0
  6
Continuous
 62
     0
370
     0
100
AcDbMText
 10
581.8108333087999
 20
-28.3299238104
 30
0.0
 40
11.9
 41
0.0
 71
     1
 72
     1
  1
622
  7
SLDTEXTSTYLE1
 73
     1
 44
1.0
1001
ACAD
1000
MTEXTBEGIN
1070
    73
1070
     1
1070
    44
1040
1.0
1070
    74
1070
     0
1000
MTEXTEND
  0
MTEXT
  5
72
330
45
100
AcDbEntity
  8
0
  6
Continuous
 62
     0
370
     0
100
AcDbMText
 10
649.8108333087999
 20
-28.3299238104
 30
0.0
 40
11.9
 41
0.0
 71
     1
 72
     1
  1
672
  7
SLDTEXTSTYLE1
 73
     1
 44
1.0
1001
ACAD
1000
MTEXTBEGIN
1070
    73
1070
     1
1070
    44
1040
1.0
1070
    74
1070
     0
1000
MTEXTEND
  0
MTEXT
  5
73
330
45
100
AcDbEntity
  8
0
  6
Continuous
 62
     0
370
     0
100
AcDbMText
 10
717.8108333088
 20
-28.3299238104
 30
0.0
 40
11.9
 41
0.0
 71
     1
 72
     1
  1
722
  7
SLDTEXTSTYLE1
 73
     1
 44
1.0
1001
ACAD
1000
MTEXTBEGIN
1070
    73
1070
     1
1070
    44
1040
1.0
1070
    74
1070
     0
1000
MTEXTEND
  0
MTEXT
  5
74
330
45
100
AcDbEntity
  8
0
  6
Continuous
 62
     0
370
     0
100
AcDbMText
 10
785.8108333088
 20
-28.3299238104
 30
0.0
 40
11.9
 41
0.0
 71
     1
 72
     1
  1
772
  7
SLDTEXTSTYLE1
 73
     1
 44
1.0
1001
ACAD
1000
MTEXTBEGIN
1070
    73
1070
     1
1070
    44
1040
1.0
1070
    74
1070
     0
1000
MTEXTEND
  0
MTEXT
  5
75
330
45
100
AcDbEntity
  8
0
  6
Continuous
 62
     0
370
     0
100
AcDbMText
 10
39.0126389638
 20
-48.7299238104
 30
0.0
 40
11.9
 41
0.0
 71
     1
 72
     1
  1
L
  7
SLDTEXTSTYLE1
 73
     1
 44
1.0
1001
ACAD
1000
MTEXTBEGIN
1070
    73
1070
     1
1070
    44
1040
1.0
1070
    74
1070
     0
1000
MTEXTEND
  0
MTEXT
  5
76
330
45
100
AcDbEntity
  8
0
  6
Continuous
 62
     0
370
     0
100
AcDbMText
 10
105.8108333088
 20
-48.7299238104
 30
0.0
 40
11.9
 41
0.0
 71
     1
 72
     1
  1
222
  7
SLDTEXTSTYLE1
 73
     1
 44
1.0
1001
ACAD
1000
MTEXTBEGIN
1070
    73
1070
     1
1070
    44
1040
1.0
1070
    74
1070
     0
1000
MTEXTEND
  0
MTEXT
  5
77
330
45
100
AcDbEntity
  8
0
  6
Continuous
 62
     0
370
     0
100
AcDbMText
 10
173.8108333088
 20
-48.7299238104
 30
0.0
 40
11.9
 41
0.0
 71
     1
 72
     1
  1
272
  7
SLDTEXTSTYLE1
 73
     1
 44
1.0
1001
ACAD
1000
MTEXTBEGIN
1070
    73
1070
     1
1070
    44
1040
1.0
1070
    74
1070
     0
1000
MTEXTEND
  0
MTEXT
  5
78
330
45
100
AcDbEntity
  8
0
  6
Continuous
 62
     0
370
     0
100
AcDbMText
 10
241.8108333088
 20
-48.7299238104
 30
0.0
 40
11.9
 41
0.0
 71
     1
 72
     1
  1
322
  7
SLDTEXTSTYLE1
 73
     1
 44
1.0
1001
ACAD
1000
MTEXTBEGIN
1070
    73
1070
     1
1070
    44
1040
1.0
1070
    74
1070
     0
1000
MTEXTEND
  0
MTEXT
  5
79
330
45
100
AcDbEntity
  8
0
  6
Continuous
 62
     0
370
     0
100
AcDbMText
 10
309.8108333088
 20
-48.7299238104
 30
0.0
 40
11.9
 41
0.0
 71
     1
 72
     1
  1
372
  7
SLDTEXTSTYLE1
 73
     1
 44
1.0
1001
ACAD
1000
MTEXTBEGIN
1070
    73
1070
     1
1070
    44
1040
1.0
1070
    74
1070
     0
1000
MTEXTEND
  0
MTEXT
  5
7A
330
45
100
AcDbEntity
  8
0
  6
Continuous
 62
     0
370
     0
100
AcDbMText
 10
377.8108333088
 20
-48.7299238104
 30
0.0
 40
11.9
 41
0.0
 71
     1
 72
     1
  1
422
  7
SLDTEXTSTYLE1
 73
     1
 44
1.0
1001
ACAD
1000
MTEXTBEGIN
1070
    73
1070
     1
1070
    44
1040
1.0
1070
    74
1070
     0
1000
MTEXTEND
  0
MTEXT
  5
7B
330
45
100
AcDbEntity
  8
0
  6
Continuous
 62
     0
370
     0
100
AcDbMText
 10
445.8108333088
 20
-48.7299238104
 30
0.0
 40
11.9
 41
0.0
 71
     1
 72
     1
  1
472
  7
SLDTEXTSTYLE1
 73
     1
 44
1.0
1001
ACAD
1000
MTEXTBEGIN
1070
    73
1070
     1
1070
    44
1040
1.0
1070
    74
1070
     0
1000
MTEXTEND
  0
MTEXT
  5
7C
330
45
100
AcDbEntity
  8
0
  6
Continuous
 62
     0
370
     0
100
AcDbMText
 10
513.8108333087999
 20
-48.7299238104
 30
0.0
 40
11.9
 41
0.0
 71
     1
 72
     1
  1
522
  7
SLDTEXTSTYLE1
 73
     1
 44
1.0
1001
ACAD
1000
MTEXTBEGIN
1070
    73
1070
     1
1070
    44
1040
1.0
1070
    74
1070
     0
1000
MTEXTEND
  0
MTEXT
  5
7D
330
45
100
AcDbEntity
  8
0
  6
Continuous
 62
     0
370
     0
100
AcDbMText
 10
581.8108333087999
 20
-48.7299238104
 30
0.0
 40
11.9
 41
0.0
 71
     1
 72
     1
  1
572
  7
SLDTEXTSTYLE1
 73
     1
 44
1.0
1001
ACAD
1000
MTEXTBEGIN
1070
    73
1070
     1
1070
    44
1040
1.0
1070
    74
1070
     0
1000
MTEXTEND
  0
MTEXT
  5
7E
330
45
100
AcDbEntity
  8
0
  6
Continuous
 62
     0
370
     0
100
AcDbMText
 10
649.8108333087999
 20
-48.7299238104
 30
0.0
 40
11.9
 41
0.0
 71
     1
 72
     1
  1
622
  7
SLDTEXTSTYLE1
 73
     1
 44
1.0
1001
ACAD
1000
MTEXTBEGIN
1070
    73
1070
     1
1070
    44
1040
1.0
1070
    74
1070
     0
1000
MTEXTEND
  0
MTEXT
  5
7F
330
45
100
AcDbEntity
  8
0
  6
Continuous
 62
     0
370
     0
100
AcDbMText
 10
717.8108333088
 20
-48.7299238104
 30
0.0
 40
11.9
 41
0.0
 71
     1
 72
     1
  1
672
  7
SLDTEXTSTYLE1
 73
     1
 44
1.0
1001
ACAD
1000
MTEXTBEGIN
1070
    73
1070
     1
1070
    44
1040
1.0
1070
    74
1070
     0
1000
MTEXTEND
  0
MTEXT
  5
80
330
45
100
AcDbEntity
  8
0
  6
Continuous
 62
     0
370
     0
100
AcDbMText
 10
785.8108333088
 20
-48.7299238104
 30
0.0
 40
11.9
 41
0.0
 71
     1
 72
     1
  1
722
  7
SLDTEXTSTYLE1
 73
     1
 44
1.0
1001
ACAD
1000
MTEXTBEGIN
1070
    73
1070
     1
1070
    44
1040
1.0
1070
    74
1070
     0
1000
MTEXTEND
  0
MTEXT
  5
81
330
45
100
AcDbEntity
  8
0
  6
Continuous
 62
     0
370
     0
100
AcDbMText
 10
36.6326390486
 20
-69.1299238104
 30
0.0
 40
11.9
 41
0.0
 71
     1
 72
     1
  1
A
  7
SLDTEXTSTYLE1
 73
     1
 44
1.0
1001
ACAD
1000
MTEXTBEGIN
1070
    73
1070
     1
1070
    44
1040
1.0
1070
    74
1070
     0
1000
MTEXTEND
  0
MTEXT
  5
82
330
45
100
AcDbEntity
  8
0
  6
Continuous
 62
     0
370
     0
100
AcDbMText
 10
114.603610971
 20
-69.1299238104
 30
0.0
 40
11.9
 41
0.0
 71
     1
 72
     1
  1
1
  7
SLDTEXTSTYLE1
 73
     1
 44
1.0
1001
ACAD
1000
MTEXTBEGIN
1070
    73
1070
     1
1070
    44
1040
1.0
1070
    74
1070
     0
1000
MTEXTEND
  0
MTEXT
  5
83
330
45
100
AcDbEntity
  8
0
  6
Continuous
 62
     0
370
     0
100
AcDbMText
 10
182.603610971
 20
-69.1299238104
 30
0.0
 40
11.9
 41
0.0
 71
     1
 72
     1
  1
2
  7
SLDTEXTSTYLE1
 73
     1
 44
1.0
1001
ACAD
1000
MTEXTBEGIN
1070
    73
1070
     1
1070
    44
1040
1.0
1070
    74
1070
     0
1000
MTEXTEND
  0
MTEXT
  5
84
330
45
100
AcDbEntity
  8
0
  6
Continuous
 62
     0
370
     0
100
AcDbMText
 10
250.603610971
 20
-69.1299238104
 30
0.0
 40
11.9
 41
0.0
 71
     1
 72
     1
  1
2
  7
SLDTEXTSTYLE1
 73
     1
 44
1.0
1001
ACAD
1000
MTEXTBEGIN
1070
    73
1070
     1
1070
    44
1040
1.0
1070
    74
1070
     0
1000
MTEXTEND
  0
MTEXT
  5
85
330
45
100
AcDbEntity
  8
0
  6
Continuous
 62
     0
370
     0
100
AcDbMText
 10
318.603610971
 20
-69.1299238104
 30
0.0
 40
11.9
 41
0.0
 71
     1
 72
     1
  1
3
  7
SLDTEXTSTYLE1
 73
     1
 44
1.0
1001
ACAD
1000
MTEXTBEGIN
1070
    73
1070
     1
1070
    44
1040
1.0
1070
    74
1070
     0
1000
MTEXTEND
  0
MTEXT
  5
86
330
45
100
AcDbEntity
  8
0
  6
Continuous
 62
     0
370
     0
100
AcDbMText
 10
386.603610971
 20
-69.1299238104
 30
0.0
 40
11.9
 41
0.0
 71
     1
 72
     1
  1
3
  7
SLDTEXTSTYLE1
 73
     1
 44
1.0
1001
ACAD
1000
MTEXTBEGIN
1070
    73
1070
     1
1070
    44
1040
1.0
1070
    74
1070
     0
1000
MTEXTEND
  0
MTEXT
  5
87
330
45
100
AcDbEntity
  8
0
  6
Continuous
 62
     0
370
     0
100
AcDbMText
 10
454.603610971
 20
-69.1299238104
 30
0.0
 40
11.9
 41
0.0
 71
     1
 72
     1
  1
4
  7
SLDTEXTSTYLE1
 73
     1
 44
1.0
1001
ACAD
1000
MTEXTBEGIN
1070
    73
1070
     1
1070
    44
1040
1.0
1070
    74
1070
     0
1000
MTEXTEND
  0
MTEXT
  5
88
330
45
100
AcDbEntity
  8
0
  6
Continuous
 62
     0
370
     0
100
AcDbMText
 10
522.6036109709998
 20
-69.1299238104
 30
0.0
 40
11.9
 41
0.0
 71
     1
 72
     1
  1
4
  7
SLDTEXTSTYLE1
 73
     1
 44
1.0
1001
ACAD
1000
MTEXTBEGIN
1070
    73
1070
     1
1070
    44
1040
1.0
1070
    74
1070
     0
1000
MTEXTEND
  0
MTEXT
  5
89
330
45
100
AcDbEntity
  8
0
  6
Continuous
 62
     0
370
     0
100
AcDbMText
 10
590.6036109709997
 20
-69.1299238104
 30
0.0
 40
11.9
 41
0.0
 71
     1
 72
     1
  1
5
  7
SLDTEXTSTYLE1
 73
     1
 44
1.0
1001
ACAD
1000
MTEXTBEGIN
1070
    73
1070
     1
1070
    44
1040
1.0
1070
    74
1070
     0
1000
MTEXTEND
  0
MTEXT
  5
8A
330
45
100
AcDbEntity
  8
0
  6
Continuous
 62
     0
370
     0
100
AcDbMText
 10
658.603610971
 20
-69.1299238104
 30
0.0
 40
11.9
 41
0.0
 71
     1
 72
     1
  1
5
  7
SLDTEXTSTYLE1
 73
     1
 44
1.0
1001
ACAD
1000
MTEXTBEGIN
1070
    73
1070
     1
1070
    44
1040
1.0
1070
    74
1070
     0
1000
MTEXTEND
  0
MTEXT
  5
8B
330
45
100
AcDbEntity
  8
0
  6
Continuous
 62
     0
370
     0
100
AcDbMText
 10
726.603610971
 20
-69.1299238104
 30
0.0
 40
11.9
 41
0.0
 71
     1
 72
     1
  1
6
  7
SLDTEXTSTYLE1
 73
     1
 44
1.0
1001
ACAD
1000
MTEXTBEGIN
1070
    73
1070
     1
1070
    44
1040
1.0
1070
    74
1070
     0
1000
MTEXTEND
  0
MTEXT
  5
8C
330
45
100
AcDbEntity
  8
0
  6
Continuous
 62
     0
370
     0
100
AcDbMText
 10
794.6036109710001
 20
-69.1299238104
 30
0.0
 40
11.9
 41
0.0
 71
     1
 72
     1
  1
6
  7
SLDTEXTSTYLE1
 73
     1
 44
1.0
1001
ACAD
1000
MTEXTBEGIN
1070
    73
1070
     1
1070
    44
1040
1.0
1070
    74
1070
     0
1000
MTEXTEND
  0
MTEXT
  5
8D
330
45
100
AcDbEntity
  8
0
  6
Continuous
 62
     0
370
     0
100
AcDbMText
 10
37.8970140778
 20
-89.52992381040001
 30
0.0
 40
11.9
 41
0.0
 71
     1
 72
     1
  1
B
  7
SLDTEXTSTYLE1
 73
     1
 44
1.0
1001
ACAD
1000
MTEXTBEGIN
1070
    73
1070
     1
1070
    44
1040
1.0
1070
    74
1070
     0
1000
MTEXTEND
  0
MTEXT
  5
8E
330
45
100
AcDbEntity
  8
0
  6
Continuous
 62
     0
370
     0
100
AcDbMText
 10
110.207221942
 20
-89.52992381040001
 30
0.0
 40
11.9
 41
0.0
 71
     1
 72
     1
  1
77
  7
SLDTEXTSTYLE1
 73
     1
 44
1.0
1001
ACAD
1000
MTEXTBEGIN
1070
    73
1070
     1
1070
    44
1040
1.0
1070
    74
1070
     0
1000
MTEXTEND
  0
MTEXT
  5
8F
330
45
100
AcDbEntity
  8
0
  6
Continuous
 62
     0
370
     0
100
AcDbMText
 10
178.207221942
 20
-89.52992381040001
 30
0.0
 40
11.9
 41
0.0
 71
     1
 72
     1
  1
27
  7
SLDTEXTSTYLE1
 73
     1
 44
1.0
1001
ACAD
1000
MTEXTBEGIN
1070
    73
1070
     1
1070
    44
1040
1.0
1070
    74
1070
     0
1000
MTEXTEND
  0
MTEXT
  5
90
330
45
100
AcDbEntity
  8
0
  6
Continuous
 62
     0
370
     0
100
AcDbMText
 10
246.207221942
 20
-89.52992381040001
 30
0.0
 40
11.9
 41
0.0
 71
     1
 72
     1
  1
77
  7
SLDTEXTSTYLE1
 73
     1
 44
1.0
1001
ACAD
1000
MTEXTBEGIN
1070
    73
1070
     1
1070
    44
1040
1.0
1070
    74
1070
     0
1000
MTEXTEND
  0
MTEXT
  5
91
330
45
100
AcDbEntity
  8
0
  6
Continuous
 62
     0
370
     0
100
AcDbMText
 10
314.207221942
 20
-89.52992381040001
 30
0.0
 40
11.9
 41
0.0
 71
     1
 72
     1
  1
27
  7
SLDTEXTSTYLE1
 73
     1
 44
1.0
1001
ACAD
1000
MTEXTBEGIN
1070
    73
1070
     1
1070
    44
1040
1.0
1070
    74
1070
     0
1000
MTEXTEND
  0
MTEXT
  5
92
330
45
100
AcDbEntity
  8
0
  6
Continuous
 62
     0
370
     0
100
AcDbMText
 10
382.207221942
 20
-89.52992381040001
 30
0.0
 40
11.9
 41
0.0
 71
     1
 72
     1
  1
77
  7
SLDTEXTSTYLE1
 73
     1
 44
1.0
1001
ACAD
1000
MTEXTBEGIN
1070
    73
1070
     1
1070
    44
1040
1.0
1070
    74
1070
     0
1000
MTEXTEND
  0
MTEXT
  5
93
330
45
100
AcDbEntity
  8
0
  6
Continuous
 62
     0
370
     0
100
AcDbMText
 10
450.2072219419998
 20
-89.52992381040001
 30
0.0
 40
11.9
 41
0.0
 71
     1
 72
     1
  1
27
  7
SLDTEXTSTYLE1
 73
     1
 44
1.0
1001
ACAD
1000
MTEXTBEGIN
1070
    73
1070
     1
1070
    44
1040
1.0
1070
    74
1070
     0
1000
MTEXTEND
  0
MTEXT
  5
94
330
45
100
AcDbEntity
  8
0
  6
Continuous
 62
     0
370
     0
100
AcDbMText
 10
518.2072219419999
 20
-89.52992381040001
 30
0.0
 40
11.9
 41
0.0
 71
     1
 72
     1
  1
77
  7
SLDTEXTSTYLE1
 73
     1
 44
1.0
1001
ACAD
1000
MTEXTBEGIN
1070
    73
1070
     1
1070
    44
1040
1.0
1070
    74
1070
     0
1000
MTEXTEND
  0
MTEXT
  5
95
330
45
100
AcDbEntity
  8
0
  6
Continuous
 62
     0
370
     0
100
AcDbMText
 10
586.2072219419999
 20
-89.52992381040001
 30
0.0
 40
11.9
 41
0.0
 71
     1
 72
     1
  1
27
  7
SLDTEXTSTYLE1
 73
     1
 44
1.0
1001
ACAD
1000
MTEXTBEGIN
1070
    73
1070
     1
1070
    44
1040
1.0
1070
    74
1070
     0
1000
MTEXTEND
  0
MTEXT
  5
96
330
45
100
AcDbEntity
  8
0
  6
Continuous
 62
     0
370
     0
100
AcDbMText
 10
654.2072219419999
 20
-89.52992381040001
 30
0.0
 40
11.9
 41
0.0
 71
     1
 72
     1
  1
77
  7
SLDTEXTSTYLE1
 73
     1
 44
1.0
1001
ACAD
1000
MTEXTBEGIN
1070
    73
1070
     1
1070
    44
1040
1.0
1070
    74
1070
     0
1000
MTEXTEND
  0
MTEXT
  5
97
330
45
100
AcDbEntity
  8
0
  6
Continuous
 62
     0
370
     0
100
AcDbMText
 10
722.2072219419998
 20
-89.52992381040001
 30
0.0
 40
11.9
 41
0.0
 71
     1
 72
     1
  1
27
  7
SLDTEXTSTYLE1
 73
     1
 44
1.0
1001
ACAD
1000
MTEXTBEGIN
1070
    73
1070
     1
1070
    44
1040
1.0
1070
    74
1070
     0
1000
MTEXTEND
  0
MTEXT
  5
98
330
45
100
AcDbEntity
  8
0
  6
Continuous
 62
     0
370
     0
100
AcDbMText
 10
790.2072219419998
 20
-89.52992381040001
 30
0.0
 40
11.9
 41
0.0
 71
     1
 72
     1
  1
77
  7
SLDTEXTSTYLE1
 73
     1
 44
1.0
1001
ACAD
1000
MTEXTBEGIN
1070
    73
1070
     1
1070
    44
1040
1.0
1070
    74
1070
     0
1000
MTEXTEND
  0
MTEXT
  5
99
330
45
100
AcDbEntity
  8
0
  6
Continuous
 62
     0
370
     0
100
AcDbMText
 10
36.6326390486
 20
-109.9299238104
 30
0.0
 40
11.9
 41
0.0
 71
     1
 72
     1
  1
N
  7
SLDTEXTSTYLE1
 73
     1
 44
1.0
1001
ACAD
1000
MTEXTBEGIN
1070
    73
1070
     1
1070
    44
1040
1.0
1070
    74
1070
     0
1000
MTEXTEND
  0
MTEXT
  5
9A
330
45
100
AcDbEntity
  8
0
  6
Continuous
 62
     0
370
     0
100
AcDbMText
 10
114.603610971
 20
-109.9299238104
 30
0.0
 40
11.9
 41
0.0
 71
     1
 72
     1
  1
6
  7
SLDTEXTSTYLE1
 73
     1
 44
1.0
1001
ACAD
1000
MTEXTBEGIN
1070
    73
1070
     1
1070
    44
1040
1.0
1070
    74
1070
     0
1000
MTEXTEND
  0
MTEXT
  5
9B
330
45
100
AcDbEntity
  8
0
  6
Continuous
 62
     0
370
     0
100
AcDbMText
 10
182.603610971
 20
-109.9299238104
 30
0.0
 40
11.9
 41
0.0
 71
     1
 72
     1
  1
8
  7
SLDTEXTSTYLE1
 73
     1
 44
1.0
1001
ACAD
1000
MTEXTBEGIN
1070
    73
1070
     1
1070
    44
1040
1.0
1070
    74
1070
     0
1000
MTEXTEND
  0
MTEXT
  5
9C
330
45
100
AcDbEntity
  8
0
  6
Continuous
 62
     0
370
     0
100
AcDbMText
 10
250.603610971
 20
-109.9299238104
 30
0.0
 40
11.9
 41
0.0
 71
     1
 72
     1
  1
8
  7
SLDTEXTSTYLE1
 73
     1
 44
1.0
1001
ACAD
1000
MTEXTBEGIN
1070
    73
1070
     1
1070
    44
1040
1.0
1070
    74
1070
     0
1000
MTEXTEND
  0
MTEXT
  5
9D
330
45
100
AcDbEntity
  8
0
  6
Continuous
 62
     0
370
     0
100
AcDbMText
 10
314.207221942
 20
-109.9299238104
 30
0.0
 40
11.9
 41
0.0
 71
     1
 72
     1
  1
10
  7
SLDTEXTSTYLE1
 73
     1
 44
1.0
1001
ACAD
1000
MTEXTBEGIN
1070
    73
1070
     1
1070
    44
1040
1.0
1070
    74
1070
     0
1000
MTEXTEND
  0
MTEXT
  5
9E
330
45
100
AcDbEntity
  8
0
  6
Continuous
 62
     0
370
     0
100
AcDbMText
 10
382.207221942
 20
-109.9299238104
 30
0.0
 40
11.9
 41
0.0
 71
     1
 72
     1
  1
10
  7
SLDTEXTSTYLE1
 73
     1
 44
1.0
1001
ACAD
1000
MTEXTBEGIN
1070
    73
1070
     1
1070
    44
1040
1.0
1070
    74
1070
     0
1000
MTEXTEND
  0
MTEXT
  5
9F
330
45
100
AcDbEntity
  8
0
  6
Continuous
 62
     0
370
     0
100
AcDbMText
 10
450.2072219419998
 20
-109.9299238104
 30
0.0
 40
11.9
 41
0.0
 71
     1
 72
     1
  1
12
  7
SLDTEXTSTYLE1
 73
     1
 44
1.0
1001
ACAD
1000
MTEXTBEGIN
1070
    73
1070
     1
1070
    44
1040
1.0
1070
    74
1070
     0
1000
MTEXTEND
  0
MTEXT
  5
A0
330
45
100
AcDbEntity
  8
0
  6
Continuous
 62
     0
370
     0
100
AcDbMText
 10
518.2072219419999
 20
-109.9299238104
 30
0.0
 40
11.9
 41
0.0
 71
     1
 72
     1
  1
12
  7
SLDTEXTSTYLE1
 73
     1
 44
1.0
1001
ACAD
1000
MTEXTBEGIN
1070
    73
1070
     1
1070
    44
1040
1.0
1070
    74
1070
     0
1000
MTEXTEND
  0
MTEXT
  5
A1
330
45
100
AcDbEntity
  8
0
  6
Continuous
 62
     0
370
     0
100
AcDbMText
 10
586.2072219419999
 20
-109.9299238104
 30
0.0
 40
11.9
 41
0.0
 71
     1
 72
     1
  1
14
  7
SLDTEXTSTYLE1
 73
     1
 44
1.0
1001
ACAD
1000
MTEXTBEGIN
1070
    73
1070
     1
1070
    44
1040
1.0
1070
    74
1070
     0
1000
MTEXTEND
  0
MTEXT
  5
A2
330
45
100
AcDbEntity
  8
0
  6
Continuous
 62
     0
370
     0
100
AcDbMText
 10
654.2072219419999
 20
-109.9299238104
 30
0.0
 40
11.9
 41
0.0
 71
     1
 72
     1
  1
14
  7
SLDTEXTSTYLE1
 73
     1
 44
1.0
1001
ACAD
1000
MTEXTBEGIN
1070
    73
1070
     1
1070
    44
1040
1.0
1070
    74
1070
     0
1000
MTEXTEND
  0
MTEXT
  5
A3
330
45
100
AcDbEntity
  8
0
  6
Continuous
 62
     0
370
     0
100
AcDbMText
 10
722.2072219419998
 20
-109.9299238104
 30
0.0
 40
11.9
 41
0.0
 71
     1
 72
     1
  1
16
  7
SLDTEXTSTYLE1
 73
     1
 44
1.0
1001
ACAD
1000
MTEXTBEGIN
1070
    73
1070
     1
1070
    44
1040
1.0
1070
    74
1070
     0
1000
MTEXTEND
  0
MTEXT
  5
A4
330
45
100
AcDbEntity
  8
0
  6
Continuous
 62
     0
370
     0
100
AcDbMText
 10
790.2072219419998
 20
-109.9299238104
 30
0.0
 40
11.9
 41
0.0
 71
     1
 72
     1
  1
16
  7
SLDTEXTSTYLE1
 73
     1
 44
1.0
1001
ACAD
1000
MTEXTBEGIN
1070
    73
1070
     1
1070
    44
1040
1.0
1070
    74
1070
     0
1000
MTEXTEND
  0
MTEXT
  5
A5
330
45
100
AcDbEntity
  8
0
  6
Continuous
 62
     0
370
     0
100
AcDbMText
 10
18.4861214086
 20
-130.8364845969
 30
0.0
 40
8.9958333333
 41
0.0
 71
     1
 72
     1
  1
\U+91cd\U+91cf(kg)
  7
SLDTEXTSTYLE1
 73
     1
 44
1.0
1001
ACAD
1000
MTEXTBEGIN
1070
    73
1070
     1
1070
    44
1040
1.0
1070
    74
1070
     0
1000
MTEXTEND
  0
ENDBLK
  5
47
330
45
100
AcDbEntity
  8
0
100
AcDbBlockEnd
  0
BLOCK
  5
1A9
330
1A8
100
AcDbEntity
  8
0
100
AcDbBlockBegin
  2
*D4
 70
     1
 10
0.0
 20
0.0
 30
0.0
  3
*D4
  1

  0
LINE
  5
648
330
1A8
100
AcDbEntity
  8
0
  6
Continuous
 62
     0
370
    -2
100
AcDbLine
 10
252.1647224205
 20
432.7792252648996
 30
0.0
 11
252.1647224205
 21
458.8302775854
 31
0.0
  0
LINE
  5
649
330
1A8
100
AcDbEntity
  8
0
  6
Continuous
 62
     0
370
    -2
100
AcDbLine
 10
474.1647224221996
 20
401.9292253087
 30
0.0
 11
474.1647224221996
 21
458.8302775854
 31
0.0
  0
LINE
  5
64A
330
1A8
100
AcDbEntity
  8
0
  6
Continuous
 62
     0
370
    -2
100
AcDbLine
 10
257.2647224205
 20
458.8302775854
 30
0.0
 11
469.0647224221996
 21
458.8302775854
 31
0.0
  0
SOLID
  5
64B
330
1A8
100
AcDbEntity
  8
0
  6
Continuous
 62
     0
100
AcDbTrace
 10
257.2647224205
 20
459.6802775853998
 30
0.0
 11
257.2647224205
 21
457.9802775853997
 31
0.0
 12
252.1647224205
 22
458.8302775854
 32
0.0
 13
252.1647224205
 23
458.8302775854
 33
0.0
  0
SOLID
  5
64C
330
1A8
100
AcDbEntity
  8
0
  6
Continuous
 62
     0
100
AcDbTrace
 10
469.0647224221996
 20
459.6802775853998
 30
0.0
 11
469.0647224221996
 21
457.9802775853997
 31
0.0
 12
474.1647224221996
 22
458.8302775854
 32
0.0
 13
474.1647224221996
 23
458.8302775854
 33
0.0
  0
MTEXT
  5
64D
330
1A8
100
AcDbEntity
  8
0
  6
Continuous
 62
     0
370
     0
100
AcDbMText
 10
359.1042921173
 20
465.5542775996304
 30
0.0
 40
8.7933954524
 41
0.0
 71
     5
 72
     1
  1
\A1;L (Stroke+122)
  7
SLDTEXTSTYLE3
 73
     1
 44
1.0
1001
ACAD
1000
MTEXTBEGIN
1070
    73
1070
     1
1070
    44
1040
1.0
1070
    74
1070
     0
1000
MTEXTEND
  0
POINT
  5
64E
330
1A8
100
AcDbEntity
  8
Defpoints
  6
Continuous
 62
     0
100
AcDbPoint
 10
252.1647224205
 20
432.7167252648997
 30
0.0
  0
POINT
  5
64F
330
1A8
100
AcDbEntity
  8
Defpoints
  6
Continuous
 62
     0
100
AcDbPoint
 10
474.1647224221996
 20
401.8667253087
 30
0.0
  0
POINT
  5
650
330
1A8
100
AcDbEntity
  8
Defpoints
  6
Continuous
 62
     0
100
AcDbPoint
 10
474.1647224221996
 20
458.8302775854
 30
0.0
  0
ENDBLK
  5
1AA
330
1A8
100
AcDbEntity
  8
0
100
AcDbBlockEnd
  0
BLOCK
  5
1B4
330
1B3
100
AcDbEntity
  8
0
100
AcDbBlockBegin
  2
*D5
 70
     1
 10
0.0
 20
0.0
 30
0.0
  3
*D5
  1

  0
LINE
  5
651
330
1B3
100
AcDbEntity
  8
0
  6
Continuous
 62
     0
370
    -2
100
AcDbLine
 10
474.1647224221996
 20
401.9292253087
 30
0.0
 11
474.1647224221996
 21
474.5080141897997
 31
0.0
  0
LINE
  5
652
330
1B3
100
AcDbEntity
  8
0
  6
Continuous
 62
     0
370
    -2
100
AcDbLine
 10
202.1647224205
 20
432.7792252648996
 30
0.0
 11
202.1647224205
 21
474.5080141897997
 31
0.0
  0
LINE
  5
653
330
1B3
100
AcDbEntity
  8
0
  6
Continuous
 62
     0
370
    -2
100
AcDbLine
 10
469.0647224221996
 20
474.5080141897997
 30
0.0
 11
207.2647224205
 21
474.5080141897997
 31
0.0
  0
SOLID
  5
654
330
1B3
100
AcDbEntity
  8
0
  6
Continuous
 62
     0
100
AcDbTrace
 10
469.0647224221996
 20
475.3580141897996
 30
0.0
 11
469.0647224221996
 21
473.6580141897996
 31
0.0
 12
474.1647224221996
 22
474.5080141897997
 32
0.0
 13
474.1647224221996
 23
474.5080141897997
 33
0.0
  0
SOLID
  5
655
330
1B3
100
AcDbEntity
  8
0
  6
Continuous
 62
     0
100
AcDbTrace
 10
207.2647224205
 20
475.3580141897996
 30
0.0
 11
207.2647224205
 21
473.6580141897996
 31
0.0
 12
202.1647224205
 22
474.5080141897997
 32
0.0
 13
202.1647224205
 23
474.5080141897997
 33
0.0
  0
MTEXT
  5
656
330
1B3
100
AcDbEntity
  8
0
  6
Continuous
 62
     0
370
     0
100
AcDbMText
 10
359.1042921173
 20
481.2320142040301
 30
0.0
 40
8.7933954524
 41
0.0
 71
     5
 72
     1
  1
\A1;S (Stroke+172)
  7
SLDTEXTSTYLE3
 73
     1
 44
1.0
1001
ACAD
1000
MTEXTBEGIN
1070
    73
1070
     1
1070
    44
1040
1.0
1070
    74
1070
     0
1000
MTEXTEND
  0
POINT
  5
657
330
1B3
100
AcDbEntity
  8
Defpoints
  6
Continuous
 62
     0
100
AcDbPoint
 10
474.1647224221996
 20
401.8667253087
 30
0.0
  0
POINT
  5
658
330
1B3
100
AcDbEntity
  8
Defpoints
  6
Continuous
 62
     0
100
AcDbPoint
 10
202.1647224205
 20
432.7167252648997
 30
0.0
  0
POINT
  5
659
330
1B3
100
AcDbEntity
  8
Defpoints
  6
Continuous
 62
     0
100
AcDbPoint
 10
202.1647224205
 20
474.5080141897997
 30
0.0
  0
ENDBLK
  5
1B5
330
1B3
100
AcDbEntity
  8
0
100
AcDbBlockEnd
  0
BLOCK
  5
1BF
330
1BE
100
AcDbEntity
  8
0
100
AcDbBlockBegin
  2
*D6
 70
     1
 10
0.0
 20
0.0
 30
0.0
  3
*D6
  1

  0
SOLID
  5
1C1
330
1BE
100
AcDbEntity
  8
0
  6
Continuous
 62
     7
370
     0
100
AcDbTrace
 10
494.3160578674
 20
367.6167252649
 30
0.0
 11
495.1660578673998
 21
372.7167252649
 31
0.0
 12
493.4660578673999
 22
372.7167252649
 32
0.0
 13
493.4660578673999
 23
372.7167252649
 33
0.0
  0
SOLID
  5
1C2
330
1BE
100
AcDbEntity
  8
0
  6
Continuous
 62
     7
370
     0
100
AcDbTrace
 10
494.3160578674
 20
425.6167252798
 30
0.0
 11
493.4660578673999
 21
420.5167252798
 31
0.0
 12
495.1660578673998
 22
420.5167252798
 32
0.0
 13
495.1660578673998
 23
420.5167252798
 33
0.0
  0
LINE
  5
1C3
330
1BE
100
AcDbEntity
  8
0
  6
Continuous
 62
     7
370
     0
100
AcDbLine
 10
464.5647224204997
 20
367.6167252649
 30
0.0
 11
497.7160578673998
 21
367.6167252649
 31
0.0
  0
LINE
  5
1C4
330
1BE
100
AcDbEntity
  8
0
  6
Continuous
 62
     7
370
     0
100
AcDbLine
 10
473.4567921517998
 20
425.6167252798
 30
0.0
 11
497.7160578673998
 21
425.6167252798
 31
0.0
  0
LINE
  5
1C5
330
1BE
100
AcDbEntity
  8
0
  6
Continuous
 62
     7
370
     0
100
AcDbLine
 10
494.3160578674
 20
367.6167252649
 30
0.0
 11
494.3160578674
 21
425.6167252798
 31
0.0
  0
MTEXT
  5
1C6
330
1BE
100
AcDbEntity
  8
0
  6
Continuous
 62
     7
370
     0
100
AcDbMText
 10
482.0454829216
 20
386.473994591
 30
0.0
 40
8.9958333333
 41
0.0
 71
     1
 72
     1
  1
58
  7
SLDTEXTSTYLE3
 11
0.0000000000000001
 21
1.0
 31
0.0
 73
     1
 44
1.0
1001
ACAD
1000
MTEXTBEGIN
1070
    73
1070
     1
1070
    44
1040
1.0
1070
    74
1070
     0
1000
MTEXTEND
  0
ENDBLK
  5
1C0
330
1BE
100
AcDbEntity
  8
0
100
AcDbBlockEnd
  0
BLOCK
  5
1C9
330
1C8
100
AcDbEntity
  8
0
100
AcDbBlockBegin
  2
*D7
 70
     1
 10
0.0
 20
0.0
 30
0.0
  3
*D7
  1

  0
SOLID
  5
1CB
330
1C8
100
AcDbEntity
  8
0
  6
Continuous
 62
     7
370
     0
100
AcDbTrace
 10
187.8923211667
 20
367.6167252649
 30
0.0
 11
188.7423211667
 21
372.7167252649
 31
0.0
 12
187.0423211667
 22
372.7167252649
 32
0.0
 13
187.0423211667
 23
372.7167252649
 33
0.0
  0
SOLID
  5
1CC
330
1C8
100
AcDbEntity
  8
0
  6
Continuous
 62
     7
370
     0
100
AcDbTrace
 10
187.8923211667
 20
432.7167252648997
 30
0.0
 11
187.0423211667
 21
427.6167252648999
 31
0.0
 12
188.7423211667
 22
427.6167252648999
 32
0.0
 13
188.7423211667
 23
427.6167252648999
 33
0.0
  0
LINE
  5
1CD
330
1C8
100
AcDbEntity
  8
0
  6
Continuous
 62
     7
370
     0
100
AcDbLine
 10
248.7647224205
 20
367.6167252649
 30
0.0
 11
184.4923211667
 21
367.6167252649
 31
0.0
  0
LINE
  5
1CE
330
1C8
100
AcDbEntity
  8
0
  6
Continuous
 62
     7
370
     0
100
AcDbLine
 10
198.7647224205
 20
432.7167252648997
 30
0.0
 11
184.4923211667
 21
432.7167252648997
 31
0.0
  0
LINE
  5
1CF
330
1C8
100
AcDbEntity
  8
0
  6
Continuous
 62
     7
370
     0
100
AcDbLine
 10
187.8923211667
 20
367.6167252649
 30
0.0
 11
187.8923211667
 21
432.7167252648997
 31
0.0
  0
MTEXT
  5
1D0
330
1C8
100
AcDbEntity
  8
0
  6
Continuous
 62
     7
370
     0
100
AcDbMText
 10
175.6217462208
 20
391.053397674
 30
0.0
 40
8.9958333333
 41
0.0
 71
     1
 72
     1
  1
65.1
  7
SLDTEXTSTYLE3
 11
0.0000000000000001
 21
1.0
 31
0.0
 73
     1
 44
1.0
1001
ACAD
1000
MTEXTBEGIN
1070
    73
1070
     1
1070
    44
1040
1.0
1070
    74
1070
     0
1000
MTEXTEND
  0
ENDBLK
  5
1CA
330
1C8
100
AcDbEntity
  8
0
100
AcDbBlockEnd
  0
BLOCK
  5
1D3
330
1D2
100
AcDbEntity
  8
0
100
AcDbBlockBegin
  2
*D8
 70
     1
 10
0.0
 20
0.0
 30
0.0
  3
*D8
  1

  0
SOLID
  5
1D5
330
1D2
100
AcDbEntity
  8
0
  6
Continuous
 62
     7
370
     0
100
AcDbTrace
 10
287.1647224205
 20
437.3590989238
 30
0.0
 11
292.2647224205
 21
436.5090989237999
 31
0.0
 12
292.2647224205
 22
438.2090989237998
 32
0.0
 13
292.2647224205
 23
438.2090989237998
 33
0.0
  0
SOLID
  5
1D6
330
1D2
100
AcDbEntity
  8
0
  6
Continuous
 62
     7
370
     0
100
AcDbTrace
 10
311.1647224205
 20
437.3590989238
 30
0.0
 11
306.0647224205
 21
438.2090989237998
 31
0.0
 12
306.0647224205
 22
436.5090989237999
 32
0.0
 13
306.0647224205
 23
436.5090989237999
 33
0.0
  0
LINE
  5
1D7
330
1D2
100
AcDbEntity
  8
0
  6
Continuous
 62
     7
370
     0
100
AcDbLine
 10
287.1647224205
 20
431.0167252649
 30
0.0
 11
287.1647224205
 21
440.7590989237998
 31
0.0
  0
LINE
  5
1D8
330
1D2
100
AcDbEntity
  8
0
  6
Continuous
 62
     7
370
     0
100
AcDbLine
 10
311.1647224205
 20
425.5167252649
 30
0.0
 11
311.1647224205
 21
440.7590989237998
 31
0.0
  0
LINE
  5
1D9
330
1D2
100
AcDbEntity
  8
0
  6
Continuous
 62
     7
370
     0
100
AcDbLine
 10
287.1647224205
 20
437.3590989238
 30
0.0
 11
311.1647224205
 21
437.3590989238
 31
0.0
  0
MTEXT
  5
1DA
330
1D2
100
AcDbEntity
  8
0
  6
Continuous
 62
     7
370
     0
100
AcDbMText
 10
291.4169928905
 20
449.6296738695998
 30
0.0
 40
8.9958333333
 41
0.0
 71
     1
 72
     1
  1
24
  7
SLDTEXTSTYLE3
 73
     1
 44
1.0
1001
ACAD
1000
MTEXTBEGIN
1070
    73
1070
     1
1070
    44
1040
1.0
1070
    74
1070
     0
1000
MTEXTEND
  0
ENDBLK
  5
1D4
330
1D2
100
AcDbEntity
  8
0
100
AcDbBlockEnd
  0
BLOCK
  5
1DD
330
1DC
100
AcDbEntity
  8
0
100
AcDbBlockBegin
  2
*D9
 70
     1
 10
0.0
 20
0.0
 30
0.0
  3
*D9
  1

  0
SOLID
  5
1DF
330
1DC
100
AcDbEntity
  8
0
  6
Continuous
 62
     7
370
     0
100
AcDbTrace
 10
311.1647224205
 20
437.3590989238
 30
0.0
 11
316.2647224205
 21
436.5090989237999
 31
0.0
 12
316.2647224205
 22
438.2090989237998
 32
0.0
 13
316.2647224205
 23
438.2090989237998
 33
0.0
  0
SOLID
  5
1E0
330
1DC
100
AcDbEntity
  8
0
  6
Continuous
 62
     7
370
     0
100
AcDbTrace
 10
323.1647224205
 20
437.3590989238
 30
0.0
 11
318.0647224205
 21
438.2090989237998
 31
0.0
 12
318.0647224205
 22
436.5090989237999
 32
0.0
 13
318.0647224205
 23
436.5090989237999
 33
0.0
  0
LINE
  5
1E1
330
1DC
100
AcDbEntity
  8
0
  6
Continuous
 62
     7
370
     0
100
AcDbLine
 10
311.1647224205
 20
425.5167252649
 30
0.0
 11
311.1647224205
 21
440.7590989237998
 31
0.0
  0
LINE
  5
1E2
330
1DC
100
AcDbEntity
  8
0
  6
Continuous
 62
     7
370
     0
100
AcDbLine
 10
323.1647224205
 20
425.5167252649
 30
0.0
 11
323.1647224205
 21
440.7590989237998
 31
0.0
  0
LINE
  5
1E3
330
1DC
100
AcDbEntity
  8
0
  6
Continuous
 62
     7
370
     0
100
AcDbLine
 10
311.1647224205
 20
437.3590989238
 30
0.0
 11
323.1647224205
 21
437.3590989238
 31
0.0
  0
MTEXT
  5
1E4
330
1DC
100
AcDbEntity
  8
0
  6
Continuous
 62
     7
370
     0
100
AcDbMText
 10
310.5232883045
 20
449.6296738695998
 30
0.0
 40
8.9958333333
 41
0.0
 71
     1
 72
     1
  1
12
  7
SLDTEXTSTYLE3
 73
     1
 44
1.0
1001
ACAD
1000
MTEXTBEGIN
1070
    73
1070
     1
1070
    44
1040
1.0
1070
    74
1070
     0
1000
MTEXTEND
  0
ENDBLK
  5
1DE
330
1DC
100
AcDbEntity
  8
0
100
AcDbBlockEnd
  0
BLOCK
  5
1E7
330
1E6
100
AcDbEntity
  8
0
100
AcDbBlockBegin
  2
*D10
 70
     1
 10
0.0
 20
0.0
 30
0.0
  3
*D10
  1

  0
SOLID
  5
1E9
330
1E6
100
AcDbEntity
  8
0
  6
Continuous
 62
     7
370
     0
100
AcDbTrace
 10
279.7564691084
 20
427.6167252648999
 30
0.0
 11
280.6064691084
 21
432.7167252648997
 31
0.0
 12
278.9064691084
 22
432.7167252648997
 32
0.0
 13
278.9064691084
 23
432.7167252648997
 33
0.0
  0
SOLID
  5
1EA
330
1E6
100
AcDbEntity
  8
0
  6
Continuous
 62
     7
370
     0
100
AcDbTrace
 10
279.7564691084
 20
422.1167252648998
 30
0.0
 11
278.9064691084
 21
417.0167252648998
 31
0.0
 12
280.6064691084
 22
417.0167252648998
 32
0.0
 13
280.6064691084
 23
417.0167252648998
 33
0.0
  0
LINE
  5
1EB
330
1E6
100
AcDbEntity
  8
0
  6
Continuous
 62
     7
370
     0
100
AcDbLine
 10
283.7647224205
 20
427.6167252648999
 30
0.0
 11
276.3564691084
 21
427.6167252648999
 31
0.0
  0
LINE
  5
1EC
330
1E6
100
AcDbEntity
  8
0
  6
Continuous
 62
     7
370
     0
100
AcDbLine
 10
307.7647224205
 20
422.1167252648998
 30
0.0
 11
276.3564691084
 21
422.1167252648998
 31
0.0
  0
LINE
  5
1ED
330
1E6
100
AcDbEntity
  8
0
  6
Continuous
 62
     7
370
     0
100
AcDbLine
 10
279.7564691084
 20
427.6167252648999
 30
0.0
 11
279.7564691084
 21
457.4789319070998
 31
0.0
  0
LINE
  5
1EE
330
1E6
100
AcDbEntity
  8
0
  6
Continuous
 62
     7
370
     0
100
AcDbLine
 10
279.7564691084
 20
427.6167252648999
 30
0.0
 11
279.7564691084
 21
422.1167252648998
 31
0.0
  0
LINE
  5
1EF
330
1E6
100
AcDbEntity
  8
0
  6
Continuous
 62
     7
370
     0
100
AcDbLine
 10
279.7564691084
 20
422.1167252648998
 30
0.0
 11
279.7564691084
 21
411.9167252648999
 31
0.0
  0
MTEXT
  5
1F0
330
1E6
100
AcDbEntity
  8
0
  6
Continuous
 62
     7
370
     0
100
AcDbMText
 10
267.4858941625
 20
431.5660412265
 30
0.0
 40
8.9958333333
 41
0.0
 71
     1
 72
     1
  1
5.5
  7
SLDTEXTSTYLE3
 11
-0.000000000000007
 21
1.0
 31
0.0
 73
     1
 44
1.0
1001
ACAD
1000
MTEXTBEGIN
1070
    73
1070
     1
1070
    44
1040
1.0
1070
    74
1070
     0
1000
MTEXTEND
  0
ENDBLK
  5
1E8
330
1E6
100
AcDbEntity
  8
0
100
AcDbBlockEnd
  0
BLOCK
  5
1F2
330
1F1
100
AcDbEntity
  8
0
100
AcDbBlockBegin
  2
SW_NOTE_2
 70
     0
 10
0.0
 20
0.0
 30
0.0
  3
SW_NOTE_2
  1

  0
MTEXT
  5
1F4
330
1F1
100
AcDbEntity
  8
0
  6
Continuous
 62
     0
370
     0
100
AcDbMText
 10
1.70084516060001
 20
3.329141055499973
 30
0.0
 40
7.196666666699999
 41
0.0
 71
     1
 72
     1
  1
HOME
  7
SLDTEXTSTYLE1
 73
     1
 44
1.0
1001
ACAD
1000
MTEXTBEGIN
1070
    73
1070
     1
1070
    44
1040
1.0
1070
    74
1070
     0
1000
MTEXTEND
  0
ENDBLK
  5
1F3
330
1F1
100
AcDbEntity
  8
0
100
AcDbBlockEnd
  0
BLOCK
  5
1F9
330
1F8
100
AcDbEntity
  8
0
100
AcDbBlockBegin
  2
SW_NOTE_3
 70
     0
 10
0.0
 20
0.0
 30
0.0
  3
SW_NOTE_3
  1

  0
MTEXT
  5
1FB
330
1F8
100
AcDbEntity
  8
0
  6
Continuous
 62
     0
370
     0
100
AcDbMText
 10
1.7071566496
 20
4.1653776841
 30
0.0
 40
8.9958333333
 41
0.0
 71
     1
 72
     1
  1
2-M3XP0.5\U+6df110(\U+5169\U+5074)
  7
SLDTEXTSTYLE1
 73
     1
 44
1.0
1001
ACAD
1000
MTEXTBEGIN
1070
    73
1070
     1
1070
    44
1040
1.0
1070
    74
1070
     0
1000
MTEXTEND
  0
ENDBLK
  5
1FA
330
1F8
100
AcDbEntity
  8
0
100
AcDbBlockEnd
  0
BLOCK
  5
318
330
317
100
AcDbEntity
  8
0
100
AcDbBlockBegin
  2
*D13
 70
     1
 10
0.0
 20
0.0
 30
0.0
  3
*D13
  1

  0
SOLID
  5
31A
330
317
100
AcDbEntity
  8
0
  6
Continuous
 62
     7
370
     0
100
AcDbTrace
 10
688.0922688604997
 20
348.0227253975
 30
0.0
 11
693.1922688356999
 21
347.1727252486
 31
0.0
 12
693.1922688852997
 22
348.8727252486
 32
0.0
 13
693.1922688852997
 23
348.8727252486
 33
0.0
  0
SOLID
  5
31B
330
317
100
AcDbEntity
  8
0
  6
Continuous
 62
     7
370
     0
100
AcDbTrace
 10
753.0922688605
 20
348.0227234994
 30
0.0
 11
747.9922688852997
 21
348.8727236483
 31
0.0
 12
747.9922688357
 22
347.1727236483
 32
0.0
 13
747.9922688357
 23
347.1727236483
 33
0.0
  0
LINE
  5
31C
330
317
100
AcDbEntity
  8
0
  6
Continuous
 62
     7
370
     0
100
AcDbLine
 10
688.0922696546
 20
375.2167254843
 30
0.0
 11
688.0922687612
 21
344.6227253975
 31
0.0
  0
LINE
  5
31D
330
317
100
AcDbEntity
  8
0
  6
Continuous
 62
     7
370
     0
100
AcDbLine
 10
753.0922696546
 20
375.2167235861
 30
0.0
 11
753.0922687611999
 21
344.6227234994
 31
0.0
  0
LINE
  5
31E
330
317
100
AcDbEntity
  8
0
  6
Continuous
 62
     7
370
     0
100
AcDbLine
 10
688.0922688604997
 20
348.0227253975
 30
0.0
 11
753.0922688605
 21
348.0227234994
 31
0.0
  0
MTEXT
  5
31F
330
317
100
AcDbEntity
  8
0
  6
Continuous
 62
     7
370
     0
100
AcDbMText
 10
711.4713656077
 20
360.2932996606
 30
0.0
 40
8.9958333333
 41
0.0
 71
     1
 72
     1
  1
65
  7
SLDTEXTSTYLE3
 11
0.9999999999999996
 21
-0.0000000292019087
 31
0.0
 73
     1
 44
1.0
1001
ACAD
1000
MTEXTBEGIN
1070
    73
1070
     1
1070
    44
1040
1.0
1070
    74
1070
     0
1000
MTEXTEND
  0
ENDBLK
  5
319
330
317
100
AcDbEntity
  8
0
100
AcDbBlockEnd
  0
BLOCK
  5
322
330
321
100
AcDbEntity
  8
0
100
AcDbBlockBegin
  2
*D14
 70
     1
 10
0.0
 20
0.0
 30
0.0
  3
*D14
  1

  0
SOLID
  5
324
330
321
100
AcDbEntity
  8
0
  6
Continuous
 62
     7
370
     0
100
AcDbTrace
 10
688.0922688604997
 20
348.0227241916001
 30
0.0
 11
682.9922688852999
 21
348.8727243405
 31
0.0
 12
682.9922688356997
 22
347.1727243405001
 32
0.0
 13
682.9922688356997
 23
347.1727243405001
 33
0.0
  0
SOLID
  5
325
330
321
100
AcDbEntity
  8
0
  6
Continuous
 62
     7
370
     0
100
AcDbTrace
 10
668.0922685276
 20
348.0227247755999
 30
0.0
 11
673.1922685027999
 21
347.1727246267
 31
0.0
 12
673.1922685523999
 22
348.8727246267
 32
0.0
 13
673.1922685523999
 23
348.8727246267
 33
0.0
  0
LINE
  5
326
330
321
100
AcDbEntity
  8
0
  6
Continuous
 62
     7
370
     0
100
AcDbLine
 10
688.0922696546
 20
375.2167254843
 30
0.0
 11
688.0922687612
 21
344.6227241916
 31
0.0
  0
LINE
  5
327
330
321
100
AcDbEntity
  8
0
  6
Continuous
 62
     7
370
     0
100
AcDbLine
 10
668.0922695378
 20
382.6167252649
 30
0.0
 11
668.0922684283
 21
344.6227247756
 31
0.0
  0
LINE
  5
328
330
321
100
AcDbEntity
  8
0
  6
Continuous
 62
     7
370
     0
100
AcDbLine
 10
688.0922688604997
 20
348.0227241916001
 30
0.0
 11
668.0922685276
 21
348.0227247755999
 31
0.0
  0
MTEXT
  5
329
330
321
100
AcDbEntity
  8
0
  6
Continuous
 62
     7
370
     0
100
AcDbMText
 10
670.9065624336
 20
360.2932996393
 30
0.0
 40
8.9958333333
 41
0.0
 71
     1
 72
     1
  1
20
  7
SLDTEXTSTYLE3
 11
0.9999999999999996
 21
-0.0000000292019298
 31
0.0
 73
     1
 44
1.0
1001
ACAD
1000
MTEXTBEGIN
1070
    73
1070
     1
1070
    44
1040
1.0
1070
    74
1070
     0
1000
MTEXTEND
  0
ENDBLK
  5
323
330
321
100
AcDbEntity
  8
0
100
AcDbBlockEnd
  0
BLOCK
  5
32C
330
32B
100
AcDbEntity
  8
0
100
AcDbBlockBegin
  2
*D15
 70
     1
 10
0.0
 20
0.0
 30
0.0
  3
*D15
  1

  0
LINE
  5
62C
330
32B
100
AcDbEntity
  8
0
  6
Continuous
 62
     0
370
    -2
100
AcDbLine
 10
682.5297696370999
 20
427.6167252648999
 30
0.0
 11
625.3644370923742
 21
427.6167252648999
 31
0.0
  0
LINE
  5
62D
330
32B
100
AcDbEntity
  8
0
  6
Continuous
 62
     0
370
    -2
100
AcDbLine
 10
692.5663877074001
 20
367.6167252649
 30
0.0
 11
625.3644370923742
 21
367.6167252649
 31
0.0
  0
LINE
  5
62E
330
32B
100
AcDbEntity
  8
0
  6
Continuous
 62
     0
370
    -2
100
AcDbLine
 10
625.3644370923742
 20
422.5167252648999
 30
0.0
 11
625.3644370923742
 21
372.7167252649
 31
0.0
  0
SOLID
  5
62F
330
32B
100
AcDbEntity
  8
0
  6
Continuous
 62
     0
100
AcDbTrace
 10
624.5144370923742
 20
422.5167252648999
 30
0.0
 11
626.2144370923745
 21
422.5167252648999
 31
0.0
 12
625.3644370923742
 22
427.6167252648999
 32
0.0
 13
625.3644370923742
 23
427.6167252648999
 33
0.0
  0
SOLID
  5
630
330
32B
100
AcDbEntity
  8
0
  6
Continuous
 62
     0
100
AcDbTrace
 10
624.5144370923742
 20
372.7167252649
 30
0.0
 11
626.2144370923745
 21
372.7167252649
 31
0.0
 12
625.3644370923742
 22
367.6167252649
 32
0.0
 13
625.3644370923742
 23
367.6167252649
 33
0.0
  0
MTEXT
  5
631
330
32B
100
AcDbEntity
  8
0
  6
Continuous
 62
     0
370
     0
100
AcDbMText
 10
618.6404370781438
 20
396.6813610572442
 30
0.0
 40
8.7933954524
 41
0.0
 71
     5
 72
     1
  1
\A1;60
  7
SLDTEXTSTYLE3
 11
0.0000000000000001
 21
1.0
 31
0.0
 73
     1
 44
1.0
1001
ACAD
1000
MTEXTBEGIN
1070
    73
1070
     1
1070
    44
1040
1.0
1070
    74
1070
     0
1000
MTEXTEND
  0
POINT
  5
632
330
32B
100
AcDbEntity
  8
Defpoints
  6
Continuous
 62
     0
100
AcDbPoint
 10
682.5922696371
 20
427.6167252648999
 30
0.0
  0
POINT
  5
633
330
32B
100
AcDbEntity
  8
Defpoints
  6
Continuous
 62
     0
100
AcDbPoint
 10
692.6288877074
 20
367.6167252649
 30
0.0
  0
POINT
  5
634
330
32B
100
AcDbEntity
  8
Defpoints
  6
Continuous
 62
     0
100
AcDbPoint
 10
625.3644370923742
 20
367.6167252649
 30
0.0
  0
ENDBLK
  5
32D
330
32B
100
AcDbEntity
  8
0
100
AcDbBlockEnd
  0
BLOCK
  5
336
330
335
100
AcDbEntity
  8
0
100
AcDbBlockBegin
  2
*D16
 70
     1
 10
0.0
 20
0.0
 30
0.0
  3
*D16
  1

  0
SOLID
  5
338
330
335
100
AcDbEntity
  8
0
  6
Continuous
 62
     7
370
     0
100
AcDbTrace
 10
682.5922696371
 20
450.1403904751
 30
0.0
 11
687.6922696371
 21
449.2903904751
 31
0.0
 12
687.6922696371
 22
450.9903904750998
 32
0.0
 13
687.6922696371
 23
450.9903904750998
 33
0.0
  0
SOLID
  5
339
330
335
100
AcDbEntity
  8
0
  6
Continuous
 62
     7
370
     0
100
AcDbTrace
 10
758.5922696371
 20
450.1403904751
 30
0.0
 11
753.4922696371
 21
450.9903904750998
 31
0.0
 12
753.4922696371
 22
449.2903904751
 32
0.0
 13
753.4922696371
 23
449.2903904751
 33
0.0
  0
LINE
  5
33A
330
335
100
AcDbEntity
  8
0
  6
Continuous
 62
     7
370
     0
100
AcDbLine
 10
682.5922696371
 20
431.0167252649
 30
0.0
 11
682.5922696371
 21
453.5403904750999
 31
0.0
  0
LINE
  5
33B
330
335
100
AcDbEntity
  8
0
  6
Continuous
 62
     7
370
     0
100
AcDbLine
 10
758.5922696371
 20
431.0167252649
 30
0.0
 11
758.5922696371
 21
453.5403904750999
 31
0.0
  0
LINE
  5
33C
330
335
100
AcDbEntity
  8
0
  6
Continuous
 62
     7
370
     0
100
AcDbLine
 10
682.5922696371
 20
450.1403904751
 30
0.0
 11
758.5922696371
 21
450.1403904751
 31
0.0
  0
MTEXT
  5
33D
330
335
100
AcDbEntity
  8
0
  6
Continuous
 62
     7
370
     0
100
AcDbMText
 10
711.4713652492999
 20
462.4109654209998
 30
0.0
 40
8.9958333333
 41
0.0
 71
     1
 72
     1
  1
76
  7
SLDTEXTSTYLE3
 73
     1
 44
1.0
1001
ACAD
1000
MTEXTBEGIN
1070
    73
1070
     1
1070
    44
1040
1.0
1070
    74
1070
     0
1000
MTEXTEND
  0
ENDBLK
  5
337
330
335
100
AcDbEntity
  8
0
100
AcDbBlockEnd
  0
BLOCK
  5
47B
330
47A
100
AcDbEntity
  8
0
100
AcDbBlockBegin
  2
*D17
 70
     1
 10
0.0
 20
0.0
 30
0.0
  3
*D17
  1

  0
SOLID
  5
47D
330
47A
100
AcDbEntity
  8
0
  6
Continuous
 62
     7
370
     0
100
AcDbTrace
 10
296.1647224205
 20
493.0601197937
 30
0.0
 11
301.2647224205
 21
492.2101197937
 31
0.0
 12
301.2647224205
 22
493.9101197937
 32
0.0
 13
301.2647224205
 23
493.9101197937
 33
0.0
  0
SOLID
  5
47E
330
47A
100
AcDbEntity
  8
0
  6
Continuous
 62
     7
370
     0
100
AcDbTrace
 10
317.1647224205
 20
493.0601197937
 30
0.0
 11
312.0647224205
 21
493.9101197937
 31
0.0
 12
312.0647224205
 22
492.2101197937
 32
0.0
 13
312.0647224205
 23
492.2101197937
 33
0.0
  0
LINE
  5
47F
330
47A
100
AcDbEntity
  8
0
  6
Continuous
 62
     7
370
     0
100
AcDbLine
 10
296.1647224205
 20
511.3968620751998
 30
0.0
 11
296.1647224205
 21
489.6601197937
 31
0.0
  0
LINE
  5
480
330
47A
100
AcDbEntity
  8
0
  6
Continuous
 62
     7
370
     0
100
AcDbLine
 10
317.1647224205
 20
527.4775631057
 30
0.0
 11
317.1647224205
 21
489.6601197937
 31
0.0
  0
LINE
  5
481
330
47A
100
AcDbEntity
  8
0
  6
Continuous
 62
     7
370
     0
100
AcDbLine
 10
296.1647224205
 20
493.0601197937
 30
0.0
 11
317.1647224205
 21
493.0601197937
 31
0.0
  0
MTEXT
  5
482
330
47A
100
AcDbEntity
  8
0
  6
Continuous
 62
     7
370
     0
100
AcDbMText
 10
301.2354709672
 20
505.3306947394998
 30
0.0
 40
8.9958333333
 41
0.0
 71
     1
 72
     1
  1
21
  7
SLDTEXTSTYLE3
 73
     1
 44
1.0
1001
ACAD
1000
MTEXTBEGIN
1070
    73
1070
     1
1070
    44
1040
1.0
1070
    74
1070
     0
1000
MTEXTEND
  0
ENDBLK
  5
47C
330
47A
100
AcDbEntity
  8
0
100
AcDbBlockEnd
  0
BLOCK
  5
485
330
484
100
AcDbEntity
  8
0
100
AcDbBlockBegin
  2
*D18
 70
     1
 10
0.0
 20
0.0
 30
0.0
  3
*D18
  1

  0
SOLID
  5
487
330
484
100
AcDbEntity
  8
0
  6
Continuous
 62
     7
370
     0
100
AcDbTrace
 10
296.1647224205
 20
524.8748423680998
 30
0.0
 11
291.0647224205
 21
525.7248423681
 31
0.0
 12
291.0647224205
 22
524.0248423680999
 32
0.0
 13
291.0647224205
 23
524.0248423680999
 33
0.0
  0
SOLID
  5
488
330
484
100
AcDbEntity
  8
0
  6
Continuous
 62
     7
370
     0
100
AcDbTrace
 10
252.1647224205
 20
524.8748423680998
 30
0.0
 11
257.2647224205
 21
524.0248423680999
 31
0.0
 12
257.2647224205
 22
525.7248423681
 32
0.0
 13
257.2647224205
 23
525.7248423681
 33
0.0
  0
LINE
  5
489
330
484
100
AcDbEntity
  8
0
  6
Continuous
 62
     7
370
     0
100
AcDbLine
 10
252.1647224205
 20
551.4588649648
 30
0.0
 11
252.1647224205
 21
521.4748423680998
 31
0.0
  0
LINE
  5
48A
330
484
100
AcDbEntity
  8
0
  6
Continuous
 62
     7
370
     0
100
AcDbLine
 10
296.1647224205
 20
524.8748423680998
 30
0.0
 11
252.1647224205
 21
524.8748423680998
 31
0.0
  0
MTEXT
  5
48B
330
484
100
AcDbEntity
  8
0
  6
Continuous
 62
     7
370
     0
100
AcDbMText
 10
264.2616818786
 20
537.1454173138999
 30
0.0
 40
8.9958333333
 41
0.0
 71
     1
 72
     1
  1
44
  7
SLDTEXTSTYLE3
 73
     1
 44
1.0
1001
ACAD
1000
MTEXTBEGIN
1070
    73
1070
     1
1070
    44
1040
1.0
1070
    74
1070
     0
1000
MTEXTEND
  0
ENDBLK
  5
486
330
484
100
AcDbEntity
  8
0
100
AcDbBlockEnd
  0
BLOCK
  5
48E
330
48D
100
AcDbEntity
  8
0
100
AcDbBlockBegin
  2
*D19
 70
     1
 10
0.0
 20
0.0
 30
0.0
  3
*D19
  1

  0
LINE
  5
63F
330
48D
100
AcDbEntity
  8
0
  6
Continuous
 62
     0
370
    -2
100
AcDbLine
 10
317.1647224205
 20
530.8150631056999
 30
0.0
 11
317.1647224205
 21
522.2117262354998
 31
0.0
  0
LINE
  5
640
330
48D
100
AcDbEntity
  8
0
  6
Continuous
 62
     0
370
    -2
100
AcDbLine
 10
417.1647224205
 20
504.8226392351
 30
0.0
 11
417.1647224205
 21
522.2117262354998
 31
0.0
  0
LINE
  5
641
330
48D
100
AcDbEntity
  8
0
  6
Continuous
 62
     0
370
    -2
100
AcDbLine
 10
322.2647224205
 20
522.2117262354998
 30
0.0
 11
412.0647224205
 21
522.2117262354998
 31
0.0
  0
SOLID
  5
642
330
48D
100
AcDbEntity
  8
0
  6
Continuous
 62
     0
100
AcDbTrace
 10
322.2647224205
 20
523.0617262354996
 30
0.0
 11
322.2647224205
 21
521.3617262354997
 31
0.0
 12
317.1647224205
 22
522.2117262354998
 32
0.0
 13
317.1647224205
 23
522.2117262354998
 33
0.0
  0
SOLID
  5
643
330
48D
100
AcDbEntity
  8
0
  6
Continuous
 62
     0
100
AcDbTrace
 10
412.0647224205
 20
523.0617262354996
 30
0.0
 11
412.0647224205
 21
521.3617262354997
 31
0.0
 12
417.1647224205
 22
522.2117262354998
 32
0.0
 13
417.1647224205
 23
522.2117262354998
 33
0.0
  0
MTEXT
  5
644
330
48D
100
AcDbEntity
  8
0
  6
Continuous
 62
     0
370
     0
100
AcDbMText
 10
377.3188790471
 20
528.9357262497302
 30
0.0
 40
8.7933954524
 41
0.0
 71
     5
 72
     1
  1
\A1;Stroke
  7
SLDTEXTSTYLE3
 73
     1
 44
1.0
1001
ACAD
1000
MTEXTBEGIN
1070
    73
1070
     1
1070
    44
1040
1.0
1070
    74
1070
     0
1000
MTEXTEND
  0
POINT
  5
645
330
48D
100
AcDbEntity
  8
Defpoints
  6
Continuous
 62
     0
100
AcDbPoint
 10
317.1647224205
 20
530.8775631057
 30
0.0
  0
POINT
  5
646
330
48D
100
AcDbEntity
  8
Defpoints
  6
Continuous
 62
     0
100
AcDbPoint
 10
417.1647224205
 20
504.7601392351
 30
0.0
  0
POINT
  5
647
330
48D
100
AcDbEntity
  8
Defpoints
  6
Continuous
 62
     0
100
AcDbPoint
 10
417.1647224205
 20
522.2117262354998
 30
0.0
  0
ENDBLK
  5
48F
330
48D
100
AcDbEntity
  8
0
100
AcDbBlockEnd
  0
BLOCK
  5
497
330
496
100
AcDbEntity
  8
0
100
AcDbBlockBegin
  2
*D20
 70
     1
 10
0.0
 20
0.0
 30
0.0
  3
*D20
  1

  0
SOLID
  5
499
330
496
100
AcDbEntity
  8
0
  6
Continuous
 62
     7
370
     0
100
AcDbTrace
 10
474.1647224221996
 20
522.2117262354998
 30
0.0
 11
469.0647224222
 21
523.0617262355
 31
0.0
 12
469.0647224222
 22
521.3617262355
 32
0.0
 13
469.0647224222
 23
521.3617262355
 33
0.0
  0
SOLID
  5
49A
330
496
100
AcDbEntity
  8
0
  6
Continuous
 62
     7
370
     0
100
AcDbTrace
 10
417.1647224205
 20
522.2117262354998
 30
0.0
 11
422.2647224205
 21
521.3617262355
 31
0.0
 12
422.2647224205
 22
523.0617262355
 32
0.0
 13
422.2647224205
 23
523.0617262355
 33
0.0
  0
LINE
  5
49B
330
496
100
AcDbEntity
  8
0
  6
Continuous
 62
     7
370
     0
100
AcDbLine
 10
474.1647224221996
 20
593.0907819822
 30
0.0
 11
474.1647224221996
 21
518.8117262355
 31
0.0
  0
LINE
  5
49C
330
496
100
AcDbEntity
  8
0
  6
Continuous
 62
     7
370
     0
100
AcDbLine
 10
474.1647224221996
 20
522.2117262354998
 30
0.0
 11
417.1647224205
 21
522.2117262354998
 31
0.0
  0
MTEXT
  5
49D
330
496
100
AcDbEntity
  8
0
  6
Continuous
 62
     7
370
     0
100
AcDbMText
 10
436.6505641024
 20
534.4823011812999
 30
0.0
 40
8.9958333333
 41
0.0
 71
     1
 72
     1
  1
57
  7
SLDTEXTSTYLE3
 73
     1
 44
1.0
1001
ACAD
1000
MTEXTBEGIN
1070
    73
1070
     1
1070
    44
1040
1.0
1070
    74
1070
     0
1000
MTEXTEND
  0
ENDBLK
  5
498
330
496
100
AcDbEntity
  8
0
100
AcDbBlockEnd
  0
BLOCK
  5
4A0
330
49F
100
AcDbEntity
  8
0
100
AcDbBlockBegin
  2
*D21
 70
     1
 10
0.0
 20
0.0
 30
0.0
  3
*D21
  1

  0
SOLID
  5
4A2
330
49F
100
AcDbEntity
  8
0
  6
Continuous
 62
     7
370
     0
100
AcDbTrace
 10
297.1647224205
 20
634.1673304865
 30
0.0
 11
302.2647224205
 21
633.3173304865
 31
0.0
 12
302.2647224205
 22
635.0173304864997
 32
0.0
 13
302.2647224205
 23
635.0173304864997
 33
0.0
  0
SOLID
  5
4A3
330
49F
100
AcDbEntity
  8
0
  6
Continuous
 62
     7
370
     0
100
AcDbTrace
 10
337.1647224205
 20
634.1673304865
 30
0.0
 11
332.0647224205
 21
635.0173304864997
 31
0.0
 12
332.0647224205
 22
633.3173304865
 32
0.0
 13
332.0647224205
 23
633.3173304865
 33
0.0
  0
LINE
  5
4A4
330
49F
100
AcDbEntity
  8
0
  6
Continuous
 62
     7
370
     0
100
AcDbLine
 10
297.1647224205
 20
626.7588649648001
 30
0.0
 11
297.1647224205
 21
637.5673304865
 31
0.0
  0
LINE
  5
4A5
330
49F
100
AcDbEntity
  8
0
  6
Continuous
 62
     7
370
     0
100
AcDbLine
 10
337.1647224205
 20
626.7588649648001
 30
0.0
 11
337.1647224205
 21
637.5673304865
 31
0.0
  0
LINE
  5
4A6
330
49F
100
AcDbEntity
  8
0
  6
Continuous
 62
     7
370
     0
100
AcDbLine
 10
297.1647224205
 20
634.1673304865
 30
0.0
 11
337.1647224205
 21
634.1673304865
 31
0.0
  0
MTEXT
  5
4A7
330
49F
100
AcDbEntity
  8
0
  6
Continuous
 62
     7
370
     0
100
AcDbMText
 10
310.877749199
 20
646.4379054323
 30
0.0
 40
8.9958333333
 41
0.0
 71
     1
 72
     1
  1
40
  7
SLDTEXTSTYLE3
 73
     1
 44
1.0
1001
ACAD
1000
MTEXTBEGIN
1070
    73
1070
     1
1070
    44
1040
1.0
1070
    74
1070
     0
1000
MTEXTEND
  0
ENDBLK
  5
4A1
330
49F
100
AcDbEntity
  8
0
100
AcDbBlockEnd
  0
BLOCK
  5
4AA
330
4A9
100
AcDbEntity
  8
0
100
AcDbBlockBegin
  2
*D22
 70
     1
 10
0.0
 20
0.0
 30
0.0
  3
*D22
  1

  0
SOLID
  5
4AC
330
4A9
100
AcDbEntity
  8
0
  6
Continuous
 62
     7
370
     0
100
AcDbTrace
 10
287.1647224205
 20
666.7356529662001
 30
0.0
 11
292.2647224205
 21
665.8856529662
 31
0.0
 12
292.2647224205
 22
667.5856529662
 32
0.0
 13
292.2647224205
 23
667.5856529662
 33
0.0
  0
SOLID
  5
4AD
330
4A9
100
AcDbEntity
  8
0
  6
Continuous
 62
     7
370
     0
100
AcDbTrace
 10
347.1647224205
 20
666.7356529662001
 30
0.0
 11
342.0647224205
 21
667.5856529662
 31
0.0
 12
342.0647224205
 22
665.8856529662
 32
0.0
 13
342.0647224205
 23
665.8856529662
 33
0.0
  0
LINE
  5
4AE
330
4A9
100
AcDbEntity
  8
0
  6
Continuous
 62
     7
370
     0
100
AcDbLine
 10
287.1647224205
 20
630.7588649648001
 30
0.0
 11
287.1647224205
 21
670.1356529662
 31
0.0
  0
LINE
  5
4AF
330
4A9
100
AcDbEntity
  8
0
  6
Continuous
 62
     7
370
     0
100
AcDbLine
 10
347.1647224205
 20
630.7588649648001
 30
0.0
 11
347.1647224205
 21
670.1356529662
 31
0.0
  0
LINE
  5
4B0
330
4A9
100
AcDbEntity
  8
0
  6
Continuous
 62
     7
370
     0
100
AcDbLine
 10
287.1647224205
 20
666.7356529662001
 30
0.0
 11
347.1647224205
 21
666.7356529662001
 31
0.0
  0
MTEXT
  5
4B1
330
4A9
100
AcDbEntity
  8
0
  6
Continuous
 62
     7
370
     0
100
AcDbMText
 10
310.877749199
 20
679.0062279119998
 30
0.0
 40
8.9958333333
 41
0.0
 71
     1
 72
     1
  1
60
  7
SLDTEXTSTYLE3
 73
     1
 44
1.0
1001
ACAD
1000
MTEXTBEGIN
1070
    73
1070
     1
1070
    44
1040
1.0
1070
    74
1070
     0
1000
MTEXTEND
  0
ENDBLK
  5
4AB
330
4A9
100
AcDbEntity
  8
0
100
AcDbBlockEnd
  0
BLOCK
  5
4B4
330
4B3
100
AcDbEntity
  8
0
100
AcDbBlockBegin
  2
*D23
 70
     1
 10
0.0
 20
0.0
 30
0.0
  3
*D23
  1

  0
SOLID
  5
4B6
330
4B3
100
AcDbEntity
  8
0
  6
Continuous
 62
     7
370
     0
100
AcDbTrace
 10
365.8708572816
 20
623.3588649647997
 30
0.0
 11
365.0208572816
 21
618.2588649648001
 31
0.0
 12
366.7208572816
 22
618.2588649648001
 32
0.0
 13
366.7208572816
 23
618.2588649648001
 33
0.0
  0
SOLID
  5
4B7
330
4B3
100
AcDbEntity
  8
0
  6
Continuous
 62
     7
370
     0
100
AcDbTrace
 10
365.8708572816
 20
555.3588649647998
 30
0.0
 11
366.7208572816
 21
560.4588649647999
 31
0.0
 12
365.0208572816
 22
560.4588649647999
 32
0.0
 13
365.0208572816
 23
560.4588649647999
 33
0.0
  0
LINE
  5
4B8
330
4B3
100
AcDbEntity
  8
0
  6
Continuous
 62
     7
370
     0
100
AcDbLine
 10
340.5647224205
 20
623.3588649647997
 30
0.0
 11
369.2708572816
 21
623.3588649647997
 31
0.0
  0
LINE
  5
4B9
330
4B3
100
AcDbEntity
  8
0
  6
Continuous
 62
     7
370
     0
100
AcDbLine
 10
340.5647224205
 20
555.3588649647998
 30
0.0
 11
369.2708572816
 21
555.3588649647998
 31
0.0
  0
LINE
  5
4BA
330
4B3
100
AcDbEntity
  8
0
  6
Continuous
 62
     7
370
     0
100
AcDbLine
 10
365.8708572816
 20
623.3588649647997
 30
0.0
 11
365.8708572816
 21
555.3588649647998
 31
0.0
  0
MTEXT
  5
4BB
330
4B3
100
AcDbEntity
  8
0
  6
Continuous
 62
     7
370
     0
100
AcDbMText
 10
353.6002823358
 20
578.4715373793
 30
0.0
 40
8.9958333333
 41
0.0
 71
     1
 72
     1
  1
68
  7
SLDTEXTSTYLE3
 11
-0.000000000000007
 21
1.0
 31
0.0
 73
     1
 44
1.0
1001
ACAD
1000
MTEXTBEGIN
1070
    73
1070
     1
1070
    44
1040
1.0
1070
    74
1070
     0
1000
MTEXTEND
  0
ENDBLK
  5
4B5
330
4B3
100
AcDbEntity
  8
0
100
AcDbBlockEnd
  0
BLOCK
  5
4BE
330
4BD
100
AcDbEntity
  8
0
100
AcDbBlockBegin
  2
*D24
 70
     1
 10
0.0
 20
0.0
 30
0.0
  3
*D24
  1

  0
SOLID
  5
4C0
330
4BD
100
AcDbEntity
  8
0
  6
Continuous
 62
     7
370
     0
100
AcDbTrace
 10
202.1647224205
 20
524.8748423680998
 30
0.0
 11
207.2647224205
 21
524.0248423680999
 31
0.0
 12
207.2647224205
 22
525.7248423681
 32
0.0
 13
207.2647224205
 23
525.7248423681
 33
0.0
  0
SOLID
  5
4C1
330
4BD
100
AcDbEntity
  8
0
  6
Continuous
 62
     7
370
     0
100
AcDbTrace
 10
252.1647224205
 20
524.8748423680998
 30
0.0
 11
247.0647224205
 21
525.7248423681
 31
0.0
 12
247.0647224205
 22
524.0248423680999
 32
0.0
 13
247.0647224205
 23
524.0248423680999
 33
0.0
  0
LINE
  5
4C2
330
4BD
100
AcDbEntity
  8
0
  6
Continuous
 62
     7
370
     0
100
AcDbLine
 10
202.1647224205
 20
551.4588649648
 30
0.0
 11
202.1647224205
 21
521.4748423680998
 31
0.0
  0
LINE
  5
4C3
330
4BD
100
AcDbEntity
  8
0
  6
Continuous
 62
     7
370
     0
100
AcDbLine
 10
252.1647224205
 20
551.4588649648
 30
0.0
 11
252.1647224205
 21
521.4748423680998
 31
0.0
  0
LINE
  5
4C4
330
4BD
100
AcDbEntity
  8
0
  6
Continuous
 62
     7
370
     0
100
AcDbLine
 10
202.1647224205
 20
524.8748423680998
 30
0.0
 11
252.1647224205
 21
524.8748423680998
 31
0.0
  0
MTEXT
  5
4C5
330
4BD
100
AcDbEntity
  8
0
  6
Continuous
 62
     7
370
     0
100
AcDbMText
 10
219.9701072203
 20
537.1454173138999
 30
0.0
 40
8.9958333333
 41
0.0
 71
     1
 72
     1
  1
50
  7
SLDTEXTSTYLE3
 73
     1
 44
1.0
1001
ACAD
1000
MTEXTBEGIN
1070
    73
1070
     1
1070
    44
1040
1.0
1070
    74
1070
     0
1000
MTEXTEND
  0
ENDBLK
  5
4BF
330
4BD
100
AcDbEntity
  8
0
100
AcDbBlockEnd
  0
BLOCK
  5
4C8
330
4C7
100
AcDbEntity
  8
0
100
AcDbBlockBegin
  2
*D25
 70
     1
 10
0.0
 20
0.0
 30
0.0
  3
*D25
  1

  0
SOLID
  5
4CA
330
4C7
100
AcDbEntity
  8
0
  6
Continuous
 62
     7
370
     0
100
AcDbTrace
 10
168.1647224205
 20
703.8588649648
 30
0.0
 11
167.3147224205
 21
698.7588649647998
 31
0.0
 12
169.0147224205
 22
698.7588649647998
 32
0.0
 13
169.0147224205
 23
698.7588649647998
 33
0.0
  0
SOLID
  5
4CB
330
4C7
100
AcDbEntity
  8
0
  6
Continuous
 62
     7
370
     0
100
AcDbTrace
 10
168.1647224205
 20
554.8588649647999
 30
0.0
 11
169.0147224205
 21
559.9588649648
 31
0.0
 12
167.3147224205
 22
559.9588649648
 32
0.0
 13
167.3147224205
 23
559.9588649648
 33
0.0
  0
LINE
  5
4CC
330
4C7
100
AcDbEntity
  8
0
  6
Continuous
 62
     7
370
     0
100
AcDbLine
 10
198.7647224205
 20
703.8588649648
 30
0.0
 11
164.7647224205
 21
703.8588649648
 31
0.0
  0
LINE
  5
4CD
330
4C7
100
AcDbEntity
  8
0
  6
Continuous
 62
     7
370
     0
100
AcDbLine
 10
198.7647224205
 20
554.8588649647999
 30
0.0
 11
164.7647224205
 21
554.8588649647999
 31
0.0
  0
LINE
  5
4CE
330
4C7
100
AcDbEntity
  8
0
  6
Continuous
 62
     7
370
     0
100
AcDbLine
 10
168.1647224205
 20
703.8588649648
 30
0.0
 11
168.1647224205
 21
554.8588649647999
 31
0.0
  0
MTEXT
  5
4CF
330
4C7
100
AcDbEntity
  8
0
  6
Continuous
 62
     7
370
     0
100
AcDbMText
 10
155.8941474747
 20
622.4434884629
 30
0.0
 40
8.9958333333
 41
0.0
 71
     1
 72
     1
  1
149
  7
SLDTEXTSTYLE3
 11
-0.000000000000007
 21
1.0
 31
0.0
 73
     1
 44
1.0
1001
ACAD
1000
MTEXTBEGIN
1070
    73
1070
     1
1070
    44
1040
1.0
1070
    74
1070
     0
1000
MTEXTEND
  0
ENDBLK
  5
4C9
330
4C7
100
AcDbEntity
  8
0
100
AcDbBlockEnd
  0
BLOCK
  5
4D1
330
4D0
100
AcDbEntity
  8
0
100
AcDbBlockBegin
  2
SW_NOTE_4
 70
     0
 10
0.0
 20
0.0
 30
0.0
  3
SW_NOTE_4
  1

  0
LINE
  5
4D3
330
4D0
100
AcDbEntity
  8
0
  6
Continuous
 62
     0
370
     0
100
AcDbLine
 10
0.0
 20
0.0
 30
0.0
 11
86.38003113499998
 21
0.0
 31
0.0
  0
LINE
  5
4D4
330
4D0
100
AcDbEntity
  8
0
  6
Continuous
 62
     0
370
     0
100
AcDbLine
 10
86.38003113499998
 20
0.0
 30
0.0
 11
0.0
 21
0.0
 31
0.0
  0
LINE
  5
4D5
330
4D0
100
AcDbEntity
  8
0
  6
Continuous
 62
     0
370
     0
100
AcDbLine
 10
0.0
 20
0.0
 30
0.0
 11
86.38003113499998
 21
0.0
 31
0.0
  0
LINE
  5
4D6
330
4D0
100
AcDbEntity
  8
0
  6
Continuous
 62
     0
370
     0
100
AcDbLine
 10
86.38003113499998
 20
0.0
 30
0.0
 11
0.0
 21
0.0
 31
0.0
  0
LINE
  5
4D7
330
4D0
100
AcDbEntity
  8
0
  6
Continuous
 62
     0
370
     0
100
AcDbLine
 10
0.0
 20
0.0
 30
0.0
 11
86.38003113499998
 21
0.0
 31
0.0
  0
LINE
  5
4D8
330
4D0
100
AcDbEntity
  8
0
  6
Continuous
 62
     0
370
     0
100
AcDbLine
 10
86.38003113499998
 20
0.0
 30
0.0
 11
0.0
 21
0.0
 31
0.0
  0
MTEXT
  5
4D9
330
4D0
100
AcDbEntity
  8
0
  6
Continuous
 62
     0
370
     0
100
AcDbMText
 10
0.0077075577
 20
10.6492303257
 30
29.95
 40
8.9958333333
 41
0.0
 71
     1
 72
     1
  1
4-M4xP0.7 \U+6df110
  7
SLDTEXTSTYLE1
 73
     1
 44
1.0
1001
ACAD
1000
MTEXTBEGIN
1070
    73
1070
     1
1070
    44
1040
1.0
1070
    74
1070
     0
1000
MTEXTEND
  0
ENDBLK
  5
4D2
330
4D0
100
AcDbEntity
  8
0
100
AcDbBlockEnd
  0
BLOCK
  5
4DD
330
4DC
100
AcDbEntity
  8
0
100
AcDbBlockBegin
  2
SW_NOTE_5
 70
     0
 10
0.0
 20
0.0
 30
0.0
  3
SW_NOTE_5
  1

  0
MTEXT
  5
4DF
330
4DC
100
AcDbEntity
  8
0
  6
Continuous
 62
     0
370
     0
100
AcDbMText
 10
-30.4826001492
 20
3.3450445191
 30
0.0
 40
7.196666666699999
 41
0.0
 71
     1
 72
     1
  1
\U+8ca0\U+6975\U+9650
  7
SLDTEXTSTYLE1
 73
     1
 44
1.0
1001
ACAD
1000
MTEXTBEGIN
1070
    73
1070
     1
1070
    44
1040
1.0
1070
    74
1070
     0
1000
MTEXTEND
  0
ENDBLK
  5
4DE
330
4DC
100
AcDbEntity
  8
0
100
AcDbBlockEnd
  0
BLOCK
  5
4E3
330
4E2
100
AcDbEntity
  8
0
100
AcDbBlockBegin
  2
SW_NOTE_6
 70
     0
 10
0.0
 20
0.0
 30
0.0
  3
SW_NOTE_6
  1

  0
MTEXT
  5
4E5
330
4E2
100
AcDbEntity
  8
0
  6
Continuous
 62
     0
370
     0
100
AcDbMText
 10
1.7100409124
 20
3.3343816342
 30
0.0
 40
7.196666666699999
 41
0.0
 71
     1
 72
     1
  1
\U+6b63\U+6975\U+9650
  7
SLDTEXTSTYLE1
 73
     1
 44
1.0
1001
ACAD
1000
MTEXTBEGIN
1070
    73
1070
     1
1070
    44
1040
1.0
1070
    74
1070
     0
1000
MTEXTEND
  0
ENDBLK
  5
4E4
330
4E2
100
AcDbEntity
  8
0
100
AcDbBlockEnd
  0
BLOCK
  5
4E9
330
4E8
100
AcDbEntity
  8
0
100
AcDbBlockBegin
  2
SW_NOTE_7
 70
     0
 10
0.0
 20
0.0
 30
0.0
  3
SW_NOTE_7
  1

  0
MTEXT
  5
4EB
330
4E8
100
AcDbEntity
  8
0
  6
Continuous
 62
     0
370
     0
100
AcDbMText
 10
1.7009408774
 20
5.759210895299997
 30
21.95
 40
11.9
 41
0.0
 71
     1
 72
     1
  1
100W motor(\U+8a3b2)
  7
SLDTEXTSTYLE1
 73
     1
 44
1.0
1001
ACAD
1000
MTEXTBEGIN
1070
    73
1070
     1
1070
    44
1040
1.0
1070
    74
1070
     0
1000
MTEXTEND
  0
ENDBLK
  5
4EA
330
4E8
100
AcDbEntity
  8
0
100
AcDbBlockEnd
  0
BLOCK
  5
5A2
330
5A1
100
AcDbEntity
  8
0
100
AcDbBlockBegin
  2
*D30
 70
     1
 10
0.0
 20
0.0
 30
0.0
  3
*D30
  1

  0
SOLID
  5
5A4
330
5A1
100
AcDbEntity
  8
0
  6
Continuous
 62
     7
370
     0
100
AcDbTrace
 10
252.1647224205
 20
343.0187624355
 30
0.0
 11
257.2647224205
 21
342.1687624354
 31
0.0
 12
257.2647224205
 22
343.8687624355
 32
0.0
 13
257.2647224205
 23
343.8687624355
 33
0.0
  0
SOLID
  5
5A5
330
5A1
100
AcDbEntity
  8
0
  6
Continuous
 62
     7
370
     0
100
AcDbTrace
 10
268.1647224205
 20
343.0187624355
 30
0.0
 11
263.0647224205
 21
343.8687624355
 31
0.0
 12
263.0647224205
 22
342.1687624354
 32
0.0
 13
263.0647224205
 23
342.1687624354
 33
0.0
  0
LINE
  5
5A6
330
5A1
100
AcDbEntity
  8
0
  6
Continuous
 62
     7
370
     0
100
AcDbLine
 10
252.1647224205
 20
313.2307289819
 30
0.0
 11
252.1647224205
 21
346.4187624354
 31
0.0
  0
LINE
  5
5A7
330
5A1
100
AcDbEntity
  8
0
  6
Continuous
 62
     7
370
     0
100
AcDbLine
 10
268.1647224205
 20
301.2673470522
 30
0.0
 11
268.1647224205
 21
346.4187624354
 31
0.0
  0
LINE
  5
5A8
330
5A1
100
AcDbEntity
  8
0
  6
Continuous
 62
     7
370
     0
100
AcDbLine
 10
252.1647224205
 20
343.0187624355
 30
0.0
 11
268.1647224205
 21
343.0187624355
 31
0.0
  0
MTEXT
  5
5A9
330
5A1
100
AcDbEntity
  8
0
  6
Continuous
 62
     7
370
     0
100
AcDbMText
 10
253.7162317912
 20
355.2893373813
 30
0.0
 40
8.9958333333
 41
0.0
 71
     1
 72
     1
  1
16
  7
SLDTEXTSTYLE3
 73
     1
 44
1.0
1001
ACAD
1000
MTEXTBEGIN
1070
    73
1070
     1
1070
    44
1040
1.0
1070
    74
1070
     0
1000
MTEXTEND
  0
ENDBLK
  5
5A3
330
5A1
100
AcDbEntity
  8
0
100
AcDbBlockEnd
  0
BLOCK
  5
5AC
330
5AB
100
AcDbEntity
  8
0
100
AcDbBlockBegin
  2
*D31
 70
     1
 10
0.0
 20
0.0
 30
0.0
  3
*D31
  1

  0
SOLID
  5
5AE
330
5AB
100
AcDbEntity
  8
0
  6
Continuous
 62
     7
370
     0
100
AcDbTrace
 10
268.1647224205
 20
343.0187624355
 30
0.0
 11
273.2647224205
 21
342.1687624355
 31
0.0
 12
273.2647224205
 22
343.8687624355
 32
0.0
 13
273.2647224205
 23
343.8687624355
 33
0.0
  0
SOLID
  5
5AF
330
5AB
100
AcDbEntity
  8
0
  6
Continuous
 62
     7
370
     0
100
AcDbTrace
 10
368.1647224205
 20
343.0187624355
 30
0.0
 11
363.0647224205
 21
343.8687624355
 31
0.0
 12
363.0647224205
 22
342.1687624355
 32
0.0
 13
363.0647224205
 23
342.1687624355
 33
0.0
  0
LINE
  5
5B0
330
5AB
100
AcDbEntity
  8
0
  6
Continuous
 62
     7
370
     0
100
AcDbLine
 10
268.1647224205
 20
301.2673470522
 30
0.0
 11
268.1647224205
 21
346.4187624355
 31
0.0
  0
LINE
  5
5B1
330
5AB
100
AcDbEntity
  8
0
  6
Continuous
 62
     7
370
     0
100
AcDbLine
 10
368.1647224205
 20
301.2673470522
 30
0.0
 11
368.1647224205
 21
346.4187624355
 31
0.0
  0
LINE
  5
5B2
330
5AB
100
AcDbEntity
  8
0
  6
Continuous
 62
     7
370
     0
100
AcDbLine
 10
268.1647224205
 20
343.0187624355
 30
0.0
 11
368.1647224205
 21
343.0187624355
 31
0.0
  0
MTEXT
  5
5B3
330
5AB
100
AcDbEntity
  8
0
  6
Continuous
 62
     7
370
     0
100
AcDbMText
 10
295.6239460487
 20
355.2893373813
 30
0.0
 40
8.9958333333
 41
0.0
 71
     1
 72
     1
  1
Ax100
  7
SLDTEXTSTYLE3
 73
     1
 44
1.0
1001
ACAD
1000
MTEXTBEGIN
1070
    73
1070
     1
1070
    44
1040
1.0
1070
    74
1070
     0
1000
MTEXTEND
  0
ENDBLK
  5
5AD
330
5AB
100
AcDbEntity
  8
0
100
AcDbBlockEnd
  0
BLOCK
  5
5B6
330
5B5
100
AcDbEntity
  8
0
100
AcDbBlockBegin
  2
*D32
 70
     1
 10
0.0
 20
0.0
 30
0.0
  3
*D32
  1

  0
SOLID
  5
5B8
330
5B5
100
AcDbEntity
  8
0
  6
Continuous
 62
     7
370
     0
100
AcDbTrace
 10
368.1647224205
 20
343.0187624355
 30
0.0
 11
373.2647224205
 21
342.1687624355
 31
0.0
 12
373.2647224205
 22
343.8687624355
 32
0.0
 13
373.2647224205
 23
343.8687624355
 33
0.0
  0
SOLID
  5
5B9
330
5B5
100
AcDbEntity
  8
0
  6
Continuous
 62
     7
370
     0
100
AcDbTrace
 10
445.1647224205
 20
343.0187624355
 30
0.0
 11
440.0647224205
 21
343.8687624355
 31
0.0
 12
440.0647224205
 22
342.1687624355
 32
0.0
 13
440.0647224205
 23
342.1687624355
 33
0.0
  0
LINE
  5
5BA
330
5B5
100
AcDbEntity
  8
0
  6
Continuous
 62
     7
370
     0
100
AcDbLine
 10
368.1647224205
 20
301.2673470522
 30
0.0
 11
368.1647224205
 21
346.4187624355
 31
0.0
  0
LINE
  5
5BB
330
5B5
100
AcDbEntity
  8
0
  6
Continuous
 62
     7
370
     0
100
AcDbLine
 10
445.1647224205
 20
301.2673470522
 30
0.0
 11
445.1647224205
 21
346.4187624355
 31
0.0
  0
LINE
  5
5BC
330
5B5
100
AcDbEntity
  8
0
  6
Continuous
 62
     7
370
     0
100
AcDbLine
 10
368.1647224205
 20
343.0187624355
 30
0.0
 11
445.1647224205
 21
343.0187624355
 31
0.0
  0
MTEXT
  5
5BD
330
5B5
100
AcDbEntity
  8
0
  6
Continuous
 62
     7
370
     0
100
AcDbMText
 10
403.1411174567
 20
355.2893373813
 30
0.0
 40
8.9958333333
 41
0.0
 71
     1
 72
     1
  1
B
  7
SLDTEXTSTYLE3
 73
     1
 44
1.0
1001
ACAD
1000
MTEXTBEGIN
1070
    73
1070
     1
1070
    44
1040
1.0
1070
    74
1070
     0
1000
MTEXTEND
  0
ENDBLK
  5
5B7
330
5B5
100
AcDbEntity
  8
0
100
AcDbBlockEnd
  0
BLOCK
  5
5C0
330
5BF
100
AcDbEntity
  8
0
100
AcDbBlockBegin
  2
*D33
 70
     1
 10
0.0
 20
0.0
 30
0.0
  3
*D33
  1

  0
SOLID
  5
5C2
330
5BF
100
AcDbEntity
  8
0
  6
Continuous
 62
     7
370
     0
100
AcDbTrace
 10
493.6705345107998
 20
297.8673470522
 30
0.0
 11
492.8205345108
 21
292.7673470522
 31
0.0
 12
494.5205345108
 22
292.7673470522
 32
0.0
 13
494.5205345108
 23
292.7673470522
 33
0.0
  0
SOLID
  5
5C3
330
5BF
100
AcDbEntity
  8
0
  6
Continuous
 62
     7
370
     0
100
AcDbTrace
 10
493.6705345107998
 20
265.8673470522
 30
0.0
 11
494.5205345108
 21
270.9673470522
 31
0.0
 12
492.8205345108
 22
270.9673470522
 32
0.0
 13
492.8205345108
 23
270.9673470522
 33
0.0
  0
LINE
  5
5C4
330
5BF
100
AcDbEntity
  8
0
  6
Continuous
 62
     7
370
     0
100
AcDbLine
 10
448.5647224205
 20
297.8673470522
 30
0.0
 11
497.0705345108
 21
297.8673470522
 31
0.0
  0
LINE
  5
5C5
330
5BF
100
AcDbEntity
  8
0
  6
Continuous
 62
     7
370
     0
100
AcDbLine
 10
448.5647224205
 20
265.8673470522
 30
0.0
 11
497.0705345108
 21
265.8673470522
 31
0.0
  0
LINE
  5
5C6
330
5BF
100
AcDbEntity
  8
0
  6
Continuous
 62
     7
370
     0
100
AcDbLine
 10
493.6705345107998
 20
297.8673470522
 30
0.0
 11
493.6705345107998
 21
265.8673470522
 31
0.0
  0
MTEXT
  5
5C7
330
5BF
100
AcDbEntity
  8
0
  6
Continuous
 62
     7
370
     0
100
AcDbMText
 10
481.399959565
 20
272.7917736643
 30
0.0
 40
8.9958333333
 41
0.0
 71
     1
 72
     1
  1
32
  7
SLDTEXTSTYLE3
 11
-0.000000000000007
 21
1.0
 31
0.0
 73
     1
 44
1.0
1001
ACAD
1000
MTEXTBEGIN
1070
    73
1070
     1
1070
    44
1040
1.0
1070
    74
1070
     0
1000
MTEXTEND
  0
ENDBLK
  5
5C1
330
5BF
100
AcDbEntity
  8
0
100
AcDbBlockEnd
  0
BLOCK
  5
5CA
330
5C9
100
AcDbEntity
  8
0
100
AcDbBlockBegin
  2
*D34
 70
     1
 10
0.0
 20
0.0
 30
0.0
  3
*D34
  1

  0
SOLID
  5
5CC
330
5C9
100
AcDbEntity
  8
0
  6
Continuous
 62
     7
370
     0
100
AcDbTrace
 10
445.1647224205
 20
343.0187624355
 30
0.0
 11
450.2647224205
 21
342.1687624355
 31
0.0
 12
450.2647224205
 22
343.8687624355
 32
0.0
 13
450.2647224205
 23
343.8687624355
 33
0.0
  0
SOLID
  5
5CD
330
5C9
100
AcDbEntity
  8
0
  6
Continuous
 62
     7
370
     0
100
AcDbTrace
 10
474.1647224221996
 20
343.0187624355
 30
0.0
 11
469.0647224222
 21
343.8687624355
 31
0.0
 12
469.0647224222
 22
342.1687624355
 32
0.0
 13
469.0647224222
 23
342.1687624355
 33
0.0
  0
LINE
  5
5CE
330
5C9
100
AcDbEntity
  8
0
  6
Continuous
 62
     7
370
     0
100
AcDbLine
 10
445.1647224205
 20
301.2673470522
 30
0.0
 11
445.1647224205
 21
346.4187624355
 31
0.0
  0
LINE
  5
5CF
330
5C9
100
AcDbEntity
  8
0
  6
Continuous
 62
     7
370
     0
100
AcDbLine
 10
474.1647224221996
 20
287.2287742798
 30
0.0
 11
474.1647224221996
 21
346.4187624355
 31
0.0
  0
LINE
  5
5D0
330
5C9
100
AcDbEntity
  8
0
  6
Continuous
 62
     7
370
     0
100
AcDbLine
 10
445.1647224205
 20
343.0187624355
 30
0.0
 11
474.1647224221996
 21
343.0187624355
 31
0.0
  0
MTEXT
  5
5D1
330
5C9
100
AcDbEntity
  8
0
  6
Continuous
 62
     7
370
     0
100
AcDbMText
 10
452.2474601648998
 20
355.2893373813
 30
0.0
 40
8.9958333333
 41
0.0
 71
     1
 72
     1
  1
29
  7
SLDTEXTSTYLE3
 73
     1
 44
1.0
1001
ACAD
1000
MTEXTBEGIN
1070
    73
1070
     1
1070
    44
1040
1.0
1070
    74
1070
     0
1000
MTEXTEND
  0
ENDBLK
  5
5CB
330
5C9
100
AcDbEntity
  8
0
100
AcDbBlockEnd
  0
BLOCK
  5
5D5
330
5D4
100
AcDbEntity
  8
0
100
AcDbBlockBegin
  2
SW_NOTE_8
 70
     0
 10
0.0
 20
0.0
 30
0.0
  3
SW_NOTE_8
  1

  0
LINE
  5
5D7
330
5D4
100
AcDbEntity
  8
0
  6
Continuous
 62
     0
370
     0
100
AcDbLine
 10
0.0
 20
0.0
 30
0.0
 11
88.60857409350002
 21
0.0
 31
0.0
  0
LINE
  5
5D8
330
5D4
100
AcDbEntity
  8
0
  6
Continuous
 62
     0
370
     0
100
AcDbLine
 10
88.60857409350002
 20
0.0
 30
0.0
 11
0.0
 21
0.0
 31
0.0
  0
LINE
  5
5D9
330
5D4
100
AcDbEntity
  8
0
  6
Continuous
 62
     0
370
     0
100
AcDbLine
 10
0.0
 20
0.0
 30
0.0
 11
88.60857409350002
 21
0.0
 31
0.0
  0
LINE
  5
5DA
330
5D4
100
AcDbEntity
  8
0
  6
Continuous
 62
     0
370
     0
100
AcDbLine
 10
88.60857409350002
 20
0.0
 30
0.0
 11
0.0
 21
0.0
 31
0.0
  0
LINE
  5
5DB
330
5D4
100
AcDbEntity
  8
0
  6
Continuous
 62
     0
370
     0
100
AcDbLine
 10
0.0
 20
0.0
 30
0.0
 11
88.60857409350002
 21
0.0
 31
0.0
  0
LINE
  5
5DC
330
5D4
100
AcDbEntity
  8
0
  6
Continuous
 62
     0
370
     0
100
AcDbLine
 10
88.60857409350002
 20
0.0
 30
0.0
 11
0.0
 21
0.0
 31
0.0
  0
MTEXT
  5
5DD
330
5D4
100
AcDbEntity
  8
0
  6
Continuous
 62
     0
370
     0
100
AcDbMText
 10
0.0082926484
 20
10.6544532515
 30
30.05
 40
8.9958333333
 41
0.0
 71
     1
 72
     1
  1
N-M5xP0.8 \U+6df110
  7
SLDTEXTSTYLE1
 73
     1
 44
1.0
1001
ACAD
1000
MTEXTBEGIN
1070
    73
1070
     1
1070
    44
1040
1.0
1070
    74
1070
     0
1000
MTEXTEND
  0
ENDBLK
  5
5D6
330
5D4
100
AcDbEntity
  8
0
100
AcDbBlockEnd
  0
ENDSEC
  0
SECTION
  2
ENTITIES
  0
MTEXT
  5
35
330
1F
100
AcDbEntity
  8
0
  6
Continuous
 62
     7
370
     0
100
AcDbMText
 10
646.7219477075
 20
653.4077435794999
 30
0.0
 40
19.7908333333
 41
0.0
 71
     1
 72
     1
  1
JDBN65\U+9593\U+63a5\U+5f0f\U+898f\U+683c\U+8868-2L
  7
SLDTEXTSTYLE1
 73
     1
 44
1.0
1001
ACAD
1000
MTEXTBEGIN
1070
    73
1070
     1
1070
    44
1040
1.0
1070
    74
1070
     0
1000
MTEXTEND
  0
INSERT
  5
3B
330
1F
100
AcDbEntity
  8
0
  6
Continuous
 62
     7
370
     0
100
AcDbBlockReference
  2
SW_NOTE_0
 10
680.9331966119997
 20
597.0537841451998
 30
0.0
  0
INSERT
  5
44
330
1F
100
AcDbEntity
  8
0
  6
Continuous
 62
     7
370
     0
100
AcDbBlockReference
  2
SW_NOTE_1
 10
614.2575558728997
 20
227.5275347406
 30
0.0
  0
LINE
  5
A7
330
1F
100
AcDbEntity
  8
0
  6
Continuous
 62
     7
370
    15
100
AcDbLine
 10
252.4147224205
 20
410.5167251634999
 30
0.0
 11
287.1647192019
 21
410.5167243469995
 31
0.0
  0
LINE
  5
A8
330
1F
100
AcDbEntity
  8
0
  6
Continuous
 62
     7
370
    15
100
AcDbLine
 10
347.164721586
 20
410.5167243469995
 30
0.0
 11
460.9147224205
 21
410.5167251634999
 31
0.0
  0
LINE
  5
A9
330
1F
100
AcDbEntity
  8
0
  6
Continuous
 62
     7
370
    15
100
AcDbLine
 10
461.1647290961998
 20
411.116727053
 30
0.0
 11
460.9147224205
 21
411.116725181
 31
0.0
  0
LINE
  5
AA
330
1F
100
AcDbEntity
  8
0
  6
Continuous
 62
     7
370
    15
100
AcDbLine
 10
252.4147224205
 20
411.116725181
 30
0.0
 11
252.1647227781
 21
411.116727053
 31
0.0
  0
LINE
  5
AB
330
1F
100
AcDbEntity
  8
0
  6
Continuous
 62
     7
370
    15
100
AcDbLine
 10
461.1647290961998
 20
412.1167253542997
 30
0.0
 11
460.9147174137
 21
412.1167253542997
 31
0.0
  0
LINE
  5
AC
330
1F
100
AcDbEntity
  8
0
  6
Continuous
 62
     7
370
    15
100
AcDbLine
 10
252.4147232848
 20
412.1167253542997
 30
0.0
 11
252.1647227781
 21
412.1167253542997
 31
0.0
  0
LINE
  5
AD
330
1F
100
AcDbEntity
  8
0
  6
Continuous
 62
     7
370
    15
100
AcDbLine
 10
287.1647224205
 20
401.7107113522
 30
0.0
 11
288.7147230881
 21
401.7107117761
 31
0.0
  0
LINE
  5
AE
330
1F
100
AcDbEntity
  8
0
  6
Continuous
 62
     7
370
    15
100
AcDbLine
 10
295.6647215264
 20
401.7107117761
 30
0.0
 11
309.6647200959
 21
401.7107117761
 31
0.0
  0
LINE
  5
AF
330
1F
100
AcDbEntity
  8
0
  6
Continuous
 62
     7
370
    15
100
AcDbLine
 10
321.1647285002
 20
401.7107117761
 30
0.0
 11
347.1647224205
 21
401.7107113522
 31
0.0
  0
LINE
  5
B0
330
1F
100
AcDbEntity
  8
0
  6
Continuous
 62
     7
370
    15
100
AcDbLine
 10
202.1647220331
 20
432.7167276133
 30
0.0
 11
252.1647227781
 21
432.7167276133
 31
0.0
  0
LINE
  5
B1
330
1F
100
AcDbEntity
  8
0
  6
Continuous
 62
     7
370
    15
100
AcDbLine
 10
244.1647224205
 20
401.6167252648997
 30
0.0
 11
244.1647224205
 21
402.6167252648999
 31
0.0
  0
LINE
  5
B2
330
1F
100
AcDbEntity
  8
0
  6
Continuous
 62
     7
370
    15
100
AcDbLine
 10
240.1647224205
 20
402.6167252648999
 30
0.0
 11
240.1647224205
 21
401.6167252648997
 31
0.0
  0
LINE
  5
B3
330
1F
100
AcDbEntity
  8
0
  6
Continuous
 62
     7
370
    15
100
AcDbLine
 10
202.1647220331
 20
368.1167253599
 30
0.0
 11
252.1647224205
 21
368.1167252649
 31
0.0
  0
ARC
  5
B4
330
1F
100
AcDbEntity
  8
0
  6
Continuous
 62
     7
370
    15
100
AcDbCircle
 10
242.1647224205
 20
401.6167252648997
 30
0.0
 40
1.999999999999971
100
AcDbArc
 50
180.0
 51
0.0
  0
ARC
  5
B5
330
1F
100
AcDbEntity
  8
0
  6
Continuous
 62
     7
370
    15
100
AcDbCircle
 10
242.1647224205
 20
402.6167252648999
 30
0.0
 40
1.999999999999971
100
AcDbArc
 50
0.0
 51
180.0
  0
LINE
  5
B6
330
1F
100
AcDbEntity
  8
0
  6
Continuous
 62
     7
370
    15
100
AcDbLine
 10
252.1647227781
 20
432.7167276133
 30
0.0
 11
252.1647224205
 21
368.1167252649
 31
0.0
  0
LINE
  5
B7
330
1F
100
AcDbEntity
  8
0
  6
Continuous
 62
     7
370
    15
100
AcDbLine
 10
202.1647220331
 20
432.7167276133
 30
0.0
 11
202.1647220331
 21
368.1167253599
 31
0.0
  0
CIRCLE
  5
B8
330
1F
100
AcDbEntity
  8
0
  6
Continuous
 62
     7
370
    15
100
AcDbCircle
 10
242.1647224205
 20
402.1167252648996
 30
0.0
 40
1.299999999999982
  0
LINE
  5
B9
330
1F
100
AcDbEntity
  8
0
  6
Continuous
 62
     7
370
    15
100
AcDbLine
 10
252.4147224205
 20
411.116725181
 30
0.0
 11
252.4147224205
 21
422.6167267383996
 31
0.0
  0
LINE
  5
BA
330
1F
100
AcDbEntity
  8
0
  6
Continuous
 62
     7
370
    15
100
AcDbLine
 10
460.9147224205
 20
411.116725181
 30
0.0
 11
460.9147224205
 21
422.6167267383996
 31
0.0
  0
LINE
  5
BB
330
1F
100
AcDbEntity
  8
0
  6
Continuous
 62
     7
370
    15
100
AcDbLine
 10
252.4147224205
 20
410.5167251634999
 30
0.0
 11
252.4147224205
 21
411.116725181
 31
0.0
  0
LINE
  5
BC
330
1F
100
AcDbEntity
  8
0
  6
Continuous
 62
     7
370
    15
100
AcDbLine
 10
460.9147224205
 20
410.5167251634999
 30
0.0
 11
460.9147224205
 21
411.116725181
 31
0.0
  0
LINE
  5
BD
330
1F
100
AcDbEntity
  8
0
  6
Continuous
 62
     7
370
    15
100
AcDbLine
 10
252.4147224205
 20
425.6167266507
 30
0.0
 11
287.1647192019
 21
425.6167266358
 31
0.0
  0
LINE
  5
BE
330
1F
100
AcDbEntity
  8
0
  6
Continuous
 62
     7
370
    15
100
AcDbLine
 10
347.164721586
 20
425.6167266358
 30
0.0
 11
460.9147224205
 21
425.6167266507
 31
0.0
  0
LINE
  5
BF
330
1F
100
AcDbEntity
  8
0
  6
Continuous
 62
     7
370
    15
100
AcDbLine
 10
252.4147224205
 20
422.6167267383996
 30
0.0
 11
252.4147224205
 21
425.6167266507
 31
0.0
  0
LINE
  5
C0
330
1F
100
AcDbEntity
  8
0
  6
Continuous
 62
     7
370
    15
100
AcDbLine
 10
460.9147224205
 20
422.6167267383996
 30
0.0
 11
460.9147224205
 21
425.6167266507
 31
0.0
  0
LINE
  5
C1
330
1F
100
AcDbEntity
  8
0
  6
Continuous
 62
     7
370
    15
100
AcDbLine
 10
252.1647227781
 20
378.6167254511
 30
0.0
 11
280.1647199171
 21
378.6167254511
 31
0.0
  0
LINE
  5
C4
330
1F
100
AcDbEntity
  8
0
  6
Continuous
 62
     7
370
    15
100
AcDbLine
 10
325.1647217053
 20
378.6167254511
 30
0.0
 11
402.1647287386
 21
378.6167254511
 31
0.0
  0
LINE
  5
C7
330
1F
100
AcDbEntity
  8
0
  6
Continuous
 62
     7
370
    15
100
AcDbLine
 10
447.1647305267
 20
378.6167254511
 30
0.0
 11
461.1647224204999
 21
378.6167254843
 31
0.0
  0
LINE
  5
C8
330
1F
100
AcDbEntity
  8
0
  6
Continuous
 62
     7
370
    15
100
AcDbLine
 10
252.1647227781
 20
388.616726159
 30
0.0
 11
277.3647246736
 21
388.616726159
 31
0.0
  0
LINE
  5
C9
330
1F
100
AcDbEntity
  8
0
  6
Continuous
 62
     7
370
    15
100
AcDbLine
 10
327.9647243994
 20
388.616726159
 30
0.0
 11
406.3647253292
 21
388.616726159
 31
0.0
  0
LINE
  5
CA
330
1F
100
AcDbEntity
  8
0
  6
Continuous
 62
     7
370
    15
100
AcDbLine
 10
431.6647214668
 20
388.616726159
 30
0.0
 11
461.1647224204999
 21
388.6167254843
 31
0.0
  0
LINE
  5
CB
330
1F
100
AcDbEntity
  8
0
  6
Continuous
 62
     7
370
    15
100
AcDbLine
 10
461.1647224204999
 20
388.6167254843
 30
0.0
 11
461.1647224204999
 21
378.6167254843
 31
0.0
  0
LINE
  5
CC
330
1F
100
AcDbEntity
  8
0
  6
Continuous
 62
     7
370
    15
100
AcDbLine
 10
461.1647224204999
 20
378.6167254843
 30
0.0
 11
461.1647224204999
 21
368.695056453
 31
0.0
  0
LINE
  5
CD
330
1F
100
AcDbEntity
  8
0
  6
Continuous
 62
     7
370
    15
100
AcDbLine
 10
252.1647227781
 20
392.7520908255
 30
0.0
 11
281.1647219437
 21
392.7520908255
 31
0.0
  0
LINE
  5
CF
330
1F
100
AcDbEntity
  8
0
  6
Continuous
 62
     7
370
    15
100
AcDbLine
 10
324.1647196787
 20
392.7520908255
 30
0.0
 11
410.1647151487
 21
392.7520908255
 31
0.0
  0
LINE
  5
D0
330
1F
100
AcDbEntity
  8
0
  6
Continuous
 62
     7
370
    15
100
AcDbLine
 10
424.6647221821
 20
392.7520908255
 30
0.0
 11
461.1647224204999
 21
392.7520904378
 31
0.0
  0
LINE
  5
D1
330
1F
100
AcDbEntity
  8
0
  6
Continuous
 62
     7
370
    15
100
AcDbLine
 10
461.1647224204999
 20
392.7520904378
 30
0.0
 11
461.1647224204999
 21
388.6167254843
 31
0.0
  0
LINE
  5
D2
330
1F
100
AcDbEntity
  8
0
  6
Continuous
 62
     7
370
    15
100
AcDbLine
 10
252.1647227781
 20
393.2375818331
 30
0.0
 11
281.1647219437
 21
393.2375818331
 31
0.0
  0
LINE
  5
D4
330
1F
100
AcDbEntity
  8
0
  6
Continuous
 62
     7
370
    15
100
AcDbLine
 10
324.1647196787
 20
393.2375818331
 30
0.0
 11
410.1647151487
 21
393.2375818331
 31
0.0
  0
LINE
  5
D5
330
1F
100
AcDbEntity
  8
0
  6
Continuous
 62
     7
370
    15
100
AcDbLine
 10
424.6647221821
 20
393.2375818331
 30
0.0
 11
461.1647224204999
 21
393.2375813467
 31
0.0
  0
LINE
  5
D6
330
1F
100
AcDbEntity
  8
0
  6
Continuous
 62
     7
370
    15
100
AcDbLine
 10
252.1647227781
 20
393.5277242053
 30
0.0
 11
281.3757223862
 21
393.5277242053
 31
0.0
  0
LINE
  5
D8
330
1F
100
AcDbEntity
  8
0
  6
Continuous
 62
     7
370
    15
100
AcDbLine
 10
323.9537192362
 20
393.5277242053
 30
0.0
 11
410.3757155912
 21
393.5277242053
 31
0.0
  0
LINE
  5
D9
330
1F
100
AcDbEntity
  8
0
  6
Continuous
 62
     7
370
    15
100
AcDbLine
 10
424.6647221821
 20
393.5277242053
 30
0.0
 11
461.1647224204999
 21
393.5277238016
 31
0.0
  0
LINE
  5
DA
330
1F
100
AcDbEntity
  8
0
  6
Continuous
 62
     7
370
    15
100
AcDbLine
 10
461.1647224204999
 20
393.5277238016
 30
0.0
 11
461.1647224204999
 21
393.2375813467
 31
0.0
  0
LINE
  5
DB
330
1F
100
AcDbEntity
  8
0
  6
Continuous
 62
     7
370
    15
100
AcDbLine
 10
252.1647227781
 20
394.009141608
 30
0.0
 11
288.7147230881
 21
394.009141608
 31
0.0
  0
LINE
  5
DD
330
1F
100
AcDbEntity
  8
0
  6
Continuous
 62
     7
370
    15
100
AcDbLine
 10
316.6147259849
 20
394.009141608
 30
0.0
 11
417.7147162932
 21
394.009141608
 31
0.0
  0
LINE
  5
DE
330
1F
100
AcDbEntity
  8
0
  6
Continuous
 62
     7
370
    15
100
AcDbLine
 10
424.6647221821
 20
394.009141608
 30
0.0
 11
461.1647224204999
 21
394.0091410121
 31
0.0
  0
LINE
  5
DF
330
1F
100
AcDbEntity
  8
0
  6
Continuous
 62
     7
370
    15
100
AcDbLine
 10
461.1647224204999
 20
398.6257714755999
 30
0.0
 11
461.1647224204999
 21
394.0091410121
 31
0.0
  0
LINE
  5
E0
330
1F
100
AcDbEntity
  8
0
  6
Continuous
 62
     7
370
    15
100
AcDbLine
 10
252.1647224205
 20
367.6167252649
 30
0.0
 11
461.1647224204999
 21
367.6167252649
 31
0.0
  0
LINE
  5
E1
330
1F
100
AcDbEntity
  8
0
  6
Continuous
 62
     7
370
    15
100
AcDbLine
 10
252.1647224205
 20
368.1167252649
 30
0.0
 11
252.1647224205
 21
367.6167252649
 31
0.0
  0
LINE
  5
E2
330
1F
100
AcDbEntity
  8
0
  6
Continuous
 62
     7
370
    15
100
AcDbLine
 10
461.1647224204999
 20
368.695056453
 30
0.0
 11
461.1647224204999
 21
367.6167252649
 31
0.0
  0
LINE
  5
E3
330
1F
100
AcDbEntity
  8
0
  6
Continuous
 62
     7
370
    15
100
AcDbLine
 10
277.4492456784
 20
367.6167252649
 30
0.0
 11
277.4647224205
 21
367.6167252649
 31
0.0
  0
LINE
  5
E4
330
1F
100
AcDbEntity
  8
0
  6
Continuous
 62
     7
370
    15
100
AcDbLine
 10
274.8647224205
 20
367.6167252649
 30
0.0
 11
274.8801991626
 21
367.6167252649
 31
0.0
  0
LINE
  5
E5
330
1F
100
AcDbEntity
  8
0
  6
Continuous
 62
     7
370
    15
100
AcDbLine
 10
312.4492456784
 20
367.6167252649
 30
0.0
 11
312.4647224205
 21
367.6167252649
 31
0.0
  0
LINE
  5
E6
330
1F
100
AcDbEntity
  8
0
  6
Continuous
 62
     7
370
    15
100
AcDbLine
 10
309.8647224205
 20
367.6167252649
 30
0.0
 11
309.8801991626
 21
367.6167252649
 31
0.0
  0
LINE
  5
121
330
1F
100
AcDbEntity
  8
0
  6
Continuous
 62
     7
370
    15
100
AcDbLine
 10
471.4817864673999
 20
378.6158136863
 30
0.0
 11
471.466497876
 21
378.6167254511
 31
0.0
  0
ARC
  5
122
330
1F
100
AcDbEntity
  8
0
  6
Continuous
 62
     7
370
    15
100
AcDbCircle
 10
472.5558967198
 20
376.8388638124
 30
0.0
 40
11.78450097604373
100
AcDbArc
 50
82.18553767960001
 51
91.9265114475
  0
ARC
  5
123
330
1F
100
AcDbEntity
  8
0
  6
Continuous
 62
     7
370
    15
100
AcDbCircle
 10
374.1756960247
 20
390.3853071583
 30
0.0
 40
100.0
100
AcDbArc
 50
353.1413387738
 51
358.9277164739
  0
ARC
  5
124
330
1F
100
AcDbEntity
  8
0
  6
Continuous
 62
     7
370
    15
100
AcDbCircle
 10
473.4837473823
 20
390.1408115513
 30
0.0
 40
11.69758194212318
100
AcDbArc
 50
260.1457096709999
 51
269.8839997161
  0
LINE
  5
125
330
1F
100
AcDbEntity
  8
0
  6
Continuous
 62
     7
370
    15
100
AcDbLine
 10
472.1597296969996
 20
388.6167038072
 30
0.0
 11
472.1573455112999
 21
388.616726159
 31
0.0
  0
LINE
  5
126
330
1F
100
AcDbEntity
  8
0
  6
Continuous
 62
     7
370
    15
100
AcDbLine
 10
472.1718890445997
 20
391.6167247880001
 30
0.0
 11
474.1681082028
 21
391.6167247880001
 31
0.0
  0
LWPOLYLINE
  5
127
330
1F
100
AcDbEntity
  8
0
  6
Continuous
 62
     7
370
    15
100
AcDbPolyline
 90
        3
 70
   128
 43
0.0
 10
474.1681082028
 20
391.6167247880001
 10
474.1743666905001
 20
389.8695245225
 10
474.1581840294
 20
388.5139286358
  0
ARC
  5
128
330
1F
100
AcDbEntity
  8
0
  6
Continuous
 62
     7
370
    15
100
AcDbCircle
 10
374.1878746768
 20
390.3832042252
 30
0.0
 40
99.98764983205669
100
AcDbArc
 50
348.0635422146
 51
353.1417012537001
  0
LINE
  5
129
330
1F
100
AcDbEntity
  8
0
  6
Continuous
 62
     7
370
    15
100
AcDbLine
 10
461.1647224204999
 20
378.6167254843
 30
0.0
 11
461.1647224204999
 21
369.2385348602
 31
0.0
  0
LINE
  5
12A
330
1F
100
AcDbEntity
  8
0
  6
Continuous
 62
     7
370
    15
100
AcDbLine
 10
471.466497876
 20
378.6167254511
 30
0.0
 11
461.1647224204999
 21
378.6167254843
 31
0.0
  0
LINE
  5
12B
330
1F
100
AcDbEntity
  8
0
  6
Continuous
 62
     7
370
    15
100
AcDbLine
 10
472.1573455112999
 20
388.616726159
 30
0.0
 11
461.1647224204999
 21
388.6167254843
 31
0.0
  0
LINE
  5
12C
330
1F
100
AcDbEntity
  8
0
  6
Continuous
 62
     7
370
    15
100
AcDbLine
 10
461.1647224204999
 20
388.6167254843
 30
0.0
 11
461.1647224204999
 21
378.6167254843
 31
0.0
  0
LINE
  5
12D
330
1F
100
AcDbEntity
  8
0
  6
Continuous
 62
     7
370
    15
100
AcDbLine
 10
466.1647224205
 20
391.6167254729
 30
0.0
 11
466.1647224205
 21
399.6167253858999
 31
0.0
  0
LINE
  5
12E
330
1F
100
AcDbEntity
  8
0
  6
Continuous
 62
     7
370
    15
100
AcDbLine
 10
472.1718890445997
 20
391.6167247880001
 30
0.0
 11
466.1647224205
 21
391.6167254729
 31
0.0
  0
LINE
  5
12F
330
1F
100
AcDbEntity
  8
0
  6
Continuous
 62
     7
370
    15
100
AcDbLine
 10
466.1647224205
 20
399.6167253858999
 30
0.0
 11
472.1647364872
 21
399.6167260993
 31
0.0
  0
LINE
  5
130
330
1F
100
AcDbEntity
  8
0
  6
Continuous
 62
     7
370
    15
100
AcDbLine
 10
461.1647224204999
 20
400.1888949447
 30
0.0
 11
461.1647224204999
 21
388.6167254843
 31
0.0
  0
ARC
  5
131
330
1F
100
AcDbEntity
  8
0
  6
Continuous
 62
     7
370
    15
100
AcDbCircle
 10
470.0567921518
 20
370.1167253588
 30
0.0
 40
2.000000000000123
100
AcDbArc
 50
270.0
 51
348.0638065933
  0
LINE
  5
132
330
1F
100
AcDbEntity
  8
0
  6
Continuous
 62
     7
370
    15
100
AcDbLine
 10
473.9436669127999
 20
399.6167260993
 30
0.0
 11
472.1647364872
 21
399.6167260993
 31
0.0
  0
LINE
  5
133
330
1F
100
AcDbEntity
  8
0
  6
Continuous
 62
     7
370
    15
100
AcDbLine
 10
474.1647224221996
 20
399.6167253188
 30
0.0
 11
466.1647224205
 21
399.6167253858999
 31
0.0
  0
LINE
  5
134
330
1F
100
AcDbEntity
  8
0
  6
Continuous
 62
     7
370
    15
100
AcDbLine
 10
474.1647224221996
 20
399.6167253188
 30
0.0
 11
473.9436669127999
 21
399.6167260993
 31
0.0
  0
LINE
  5
135
330
1F
100
AcDbEntity
  8
0
  6
Continuous
 62
     7
370
    15
100
AcDbLine
 10
474.1647224221996
 20
401.2426037498999
 30
0.0
 11
474.1647224221996
 21
399.6167253188
 31
0.0
  0
LINE
  5
136
330
1F
100
AcDbEntity
  8
0
  6
Continuous
 62
     7
370
    15
100
AcDbLine
 10
461.1647224204999
 20
401.2426038083
 30
0.0
 11
461.1647224204999
 21
400.1888949447
 31
0.0
  0
LINE
  5
137
330
1F
100
AcDbEntity
  8
0
  6
Continuous
 62
     7
370
    15
100
AcDbLine
 10
461.1647224204999
 20
422.6167253673999
 30
0.0
 11
461.1647224204999
 21
401.2426038083
 31
0.0
  0
LWPOLYLINE
  5
138
330
1F
100
AcDbEntity
  8
0
  6
Continuous
 62
     7
370
    15
100
AcDbPolyline
 90
        7
 70
   128
 43
0.0
 10
472.1647364872
 20
401.8816169191
 10
472.237841584
 20
401.8810693015
 10
472.6038141028998
 20
401.8783349383999
 10
473.2249243037998
 20
401.8737044025
 10
473.7264973895998
 20
401.869975387
 10
474.0519983547
 20
401.8675613987999
 10
474.164710738
 20
401.8667269337998
  0
LINE
  5
139
330
1F
100
AcDbEntity
  8
0
  6
Continuous
 62
     7
370
    15
100
AcDbLine
 10
474.1647224221996
 20
401.8667253087
 30
0.0
 11
474.1647224221996
 21
401.2426037498999
 31
0.0
  0
ARC
  5
13A
330
1F
100
AcDbEntity
  8
0
  6
Continuous
 62
     7
370
    15
100
AcDbCircle
 10
374.1756960247
 20
403.3481435761999
 30
0.0
 40
100.0
100
AcDbArc
 50
359.1511788068
 51
11.3392687447
  0
ARC
  5
13B
330
1F
100
AcDbEntity
  8
0
  6
Continuous
 62
     7
370
    15
100
AcDbCircle
 10
470.0567921518
 20
423.6167252798
 30
0.0
 40
2.000000000000063
100
AcDbArc
 50
11.9361934067
 51
90.0
  0
ARC
  5
13C
330
1F
100
AcDbEntity
  8
0
  6
Continuous
 62
     7
370
    15
100
AcDbCircle
 10
371.9586517392
 20
402.8909712584999
 30
0.0
 40
102.2636629697751
100
AcDbArc
 50
11.3461805805
 51
11.9298930837
  0
LINE
  5
13D
330
1F
100
AcDbEntity
  8
0
  6
Continuous
 62
     7
370
    15
100
AcDbLine
 10
470.0567921518
 20
425.6167252798
 30
0.0
 11
461.1647224204999
 21
425.6167252798
 31
0.0
  0
LINE
  5
13E
330
1F
100
AcDbEntity
  8
0
  6
Continuous
 62
     7
370
    15
100
AcDbLine
 10
461.1647224204999
 20
425.6167252798
 30
0.0
 11
461.1647224204999
 21
422.6167253673999
 31
0.0
  0
ARC
  5
13F
330
1F
100
AcDbEntity
  8
0
  6
Continuous
 62
     7
370
    15
100
AcDbCircle
 10
470.0567921518
 20
370.1167237109
 30
0.0
 40
2.000000000000011
100
AcDbArc
 50
270.0
 51
348.0638065933
  0
LINE
  5
140
330
1F
100
AcDbEntity
  8
0
  6
Continuous
 62
     7
370
    15
100
AcDbLine
 10
470.0567921518
 20
368.1167237109
 30
0.0
 11
461.1647290961998
 21
368.1167237301
 31
0.0
  0
LINE
  5
141
330
1F
100
AcDbEntity
  8
0
  6
Continuous
 62
     7
370
    15
100
AcDbLine
 10
474.1647224221996
 20
399.6167253188
 30
0.0
 11
474.1647224221996
 21
391.8667252534
 31
0.0
  0
LINE
  5
142
330
1F
100
AcDbEntity
  8
0
  6
Continuous
 62
     7
370
    15
100
AcDbLine
 10
474.1681082028
 20
391.6167247880001
 30
0.0
 11
466.1647224205
 21
391.6167254729
 31
0.0
  0
LINE
  5
143
330
1F
100
AcDbEntity
  8
0
  6
Continuous
 62
     7
370
    15
100
AcDbLine
 10
470.0567921518
 20
425.6167252798
 30
0.0
 11
461.1647224204999
 21
425.6167252798
 31
0.0
  0
LINE
  5
144
330
1F
100
AcDbEntity
  8
0
  6
Continuous
 62
     7
370
    15
100
AcDbLine
 10
460.9147174137
 20
423.616726308
 30
0.0
 11
461.1647290961998
 21
423.616726308
 31
0.0
  0
LINE
  5
145
330
1F
100
AcDbEntity
  8
0
  6
Continuous
 62
     7
370
    15
100
AcDbLine
 10
461.1647290961998
 20
418.6167273509998
 30
0.0
 11
460.9147174137
 21
418.6167273509998
 31
0.0
  0
LINE
  5
146
330
1F
100
AcDbEntity
  8
0
  6
Continuous
 62
     7
370
    15
100
AcDbLine
 10
461.1647290961998
 20
418.6167273509998
 30
0.0
 11
460.9147174137
 21
418.6167273509998
 31
0.0
  0
LINE
  5
147
330
1F
100
AcDbEntity
  8
0
  6
Continuous
 62
     7
370
    15
100
AcDbLine
 10
252.1647227781
 20
419.6167256523
 30
0.0
 11
252.4147232848
 21
419.6167256523
 31
0.0
  0
CIRCLE
  5
157
330
1F
100
AcDbEntity
  8
0
  6
Continuous
 62
     7
370
    15
100
AcDbCircle
 10
311.1647224205
 20
422.1167252648998
 30
0.0
 40
1.650000000000034
  0
CIRCLE
  5
158
330
1F
100
AcDbEntity
  8
0
  6
Continuous
 62
     7
370
    15
100
AcDbCircle
 10
323.1647224205
 20
422.1167252648998
 30
0.0
 40
1.650000000000034
  0
LINE
  5
159
330
1F
100
AcDbEntity
  8
0
  6
Continuous
 62
     7
370
    15
100
AcDbLine
 10
287.1647224205
 20
410.3667252649
 30
0.0
 11
313.1647197383
 21
410.3667255330998
 31
0.0
  0
LINE
  5
15A
330
1F
100
AcDbEntity
  8
0
  6
Continuous
 62
     7
370
    15
100
AcDbLine
 10
321.1647285002
 20
410.3667255330998
 30
0.0
 11
347.1647224205
 21
410.3667252649
 31
0.0
  0
LINE
  5
15B
330
1F
100
AcDbEntity
  8
0
  6
Continuous
 62
     7
370
    15
100
AcDbLine
 10
287.1647224205
 20
409.7107113522
 30
0.0
 11
287.1647224205
 21
410.3667252649
 31
0.0
  0
LINE
  5
15C
330
1F
100
AcDbEntity
  8
0
  6
Continuous
 62
     7
370
    15
100
AcDbLine
 10
347.1647224205
 20
409.7107113522
 30
0.0
 11
347.1647224205
 21
410.3667252649
 31
0.0
  0
LINE
  5
15D
330
1F
100
AcDbEntity
  8
0
  6
Continuous
 62
     7
370
    15
100
AcDbLine
 10
287.1647224205
 20
401.7107113522
 30
0.0
 11
287.1647224205
 21
409.7107113522
 31
0.0
  0
LINE
  5
15E
330
1F
100
AcDbEntity
  8
0
  6
Continuous
 62
     7
370
    15
100
AcDbLine
 10
347.1647224205
 20
401.7107113522
 30
0.0
 11
347.1647224205
 21
409.7107113522
 31
0.0
  0
LINE
  5
15F
330
1F
100
AcDbEntity
  8
0
  6
Continuous
 62
     7
370
    15
100
AcDbLine
 10
347.1647224205
 20
410.8667252649
 30
0.0
 11
321.1647285002
 21
410.8667265463997
 31
0.0
  0
LINE
  5
160
330
1F
100
AcDbEntity
  8
0
  6
Continuous
 62
     7
370
    15
100
AcDbLine
 10
313.1647197383
 20
410.8667265463997
 30
0.0
 11
287.1647224205
 21
410.8667252649
 31
0.0
  0
LINE
  5
163
330
1F
100
AcDbEntity
  8
0
  6
Continuous
 62
     7
370
    15
100
AcDbLine
 10
347.164721586
 20
427.6167269635998
 30
0.0
 11
287.1647192019
 21
427.6167269635998
 31
0.0
  0
LINE
  5
164
330
1F
100
AcDbEntity
  8
0
  6
Continuous
 62
     7
370
    15
100
AcDbLine
 10
287.1647224205
 20
410.8667252649
 30
0.0
 11
287.1647192019
 21
427.6167269635998
 31
0.0
  0
LINE
  5
165
330
1F
100
AcDbEntity
  8
0
  6
Continuous
 62
     7
370
    15
100
AcDbLine
 10
347.1647224205
 20
410.8667252649
 30
0.0
 11
347.164721586
 21
427.6167269635998
 31
0.0
  0
LINE
  5
166
330
1F
100
AcDbEntity
  8
0
  6
Continuous
 62
     7
370
    15
100
AcDbLine
 10
287.1647224205
 20
410.8667252649
 30
0.0
 11
287.1647224205
 21
410.3667252649
 31
0.0
  0
LINE
  5
167
330
1F
100
AcDbEntity
  8
0
  6
Continuous
 62
     7
370
    15
100
AcDbLine
 10
347.1647224205
 20
410.3667252649
 30
0.0
 11
347.1647224205
 21
410.8667252649
 31
0.0
  0
DIMENSION
  5
1A5
330
1F
100
AcDbEntity
  8
0
  6
Continuous
 62
     7
370
     0
100
AcDbDimension
  2
*D4
 10
474.1647224221996
 20
458.8302775854
 30
0.0
 11
359.1042921173
 21
458.8302775854
 31
0.0
 70
   160
  1
L (Stroke+122)
 71
     5
 42
222.0000000016997
  3
SLDDIMSTYLE0
100
AcDbAlignedDimension
 13
252.1647224205
 23
432.7167252648997
 33
0.0
 14
474.1647224221996
 24
401.8667253087
 34
0.0
100
AcDbRotatedDimension
  0
DIMENSION
  5
1B2
330
1F
100
AcDbEntity
  8
0
  6
Continuous
 62
     7
370
     0
100
AcDbDimension
  2
*D5
 10
202.1647224205
 20
474.5080141897997
 30
0.0
 11
359.1042921173
 21
474.5080141897997
 31
0.0
 70
   160
  1
S (Stroke+172)
 71
     5
 42
272.0000000016997
  3
SLDDIMSTYLE0
100
AcDbAlignedDimension
 13
474.1647224221996
 23
401.8667253087
 33
0.0
 14
202.1647224205
 24
432.7167252648997
 34
0.0
100
AcDbRotatedDimension
  0
DIMENSION
  5
1BD
330
1F
100
AcDbEntity
  8
0
  6
Continuous
 62
     7
370
     0
100
AcDbDimension
  2
*D6
 10
494.3160578674
 20
425.6167252798
 30
0.0
 11
494.3160578674
 21
395.2655432481
 31
0.0
 70
   160
 71
     5
 42
-1.0
  3
SLDDIMSTYLE0
100
AcDbAlignedDimension
 13
461.1647224204999
 23
367.6167252649
 33
0.0
 14
470.0567921518
 24
425.6167252798
 34
0.0
 50
90.0
100
AcDbRotatedDimension
  0
DIMENSION
  5
1C7
330
1F
100
AcDbEntity
  8
0
  6
Continuous
 62
     7
370
     0
100
AcDbDimension
  2
*D7
 10
187.8923211667
 20
432.7167252648997
 30
0.0
 11
187.8923211667
 21
404.2433863808
 31
0.0
 70
   160
 71
     5
 42
-1.0
  3
SLDDIMSTYLE0
100
AcDbAlignedDimension
 13
252.1647224205
 23
367.6167252649
 33
0.0
 14
202.1647224205
 24
432.7167252648997
 34
0.0
 50
90.0
100
AcDbRotatedDimension
  0
DIMENSION
  5
1D1
330
1F
100
AcDbEntity
  8
0
  6
Continuous
 62
     7
370
     0
100
AcDbDimension
  2
*D8
 10
311.1647224205
 20
437.3590989238
 30
0.0
 11
300.2085415475
 21
437.3590989238
 31
0.0
 70
   160
 71
     5
 42
-1.0
  3
SLDDIMSTYLE0
100
AcDbAlignedDimension
 13
287.1647224205
 23
427.6167252648999
 33
0.0
 14
311.1647224205
 24
422.1167252648998
 34
0.0
100
AcDbRotatedDimension
  0
DIMENSION
  5
1DB
330
1F
100
AcDbEntity
  8
0
  6
Continuous
 62
     7
370
     0
100
AcDbDimension
  2
*D9
 10
323.1647224205
 20
437.3590989238
 30
0.0
 11
317.8486902783
 21
437.3590989238
 31
0.0
 70
   160
 71
     5
 42
-1.0
  3
SLDDIMSTYLE0
100
AcDbAlignedDimension
 13
311.1647224205
 23
422.1167252648998
 33
0.0
 14
323.1647224205
 24
422.1167252648998
 34
0.0
100
AcDbRotatedDimension
  0
DIMENSION
  5
1E5
330
1F
100
AcDbEntity
  8
0
  6
Continuous
 62
     7
370
     0
100
AcDbDimension
  2
*D10
 10
279.7564691084
 20
422.1167252648998
 30
0.0
 11
279.7564691084
 21
441.8237365668
 31
0.0
 70
   160
 71
     5
 42
-1.0
  3
SLDDIMSTYLE0
100
AcDbAlignedDimension
 13
287.1647224205
 23
427.6167252648999
 33
0.0
 14
311.1647224205
 24
422.1167252648998
 34
0.0
 50
90.0
100
AcDbRotatedDimension
  0
INSERT
  5
1F5
330
1F
100
AcDbEntity
  8
0
  6
Continuous
 62
     7
370
     0
100
AcDbBlockReference
  2
SW_NOTE_2
 10
343.3699465721
 20
508.9925281701
 30
0.0
  0
LEADER
  5
1F7
330
1F
100
AcDbEntity
  8
0
  6
Continuous
 62
     7
370
     0
100
AcDbLeader
  3
SLDDIMSTYLE1
 76
     2
 10
317.3015278339
 20
508.7489162993
 30
0.0
 10
343.3699465721
 20
508.9925281701
 30
0.0
  0
INSERT
  5
1FC
330
1F
100
AcDbEntity
  8
0
  6
Continuous
 62
     7
370
     0
100
AcDbBlockReference
  2
SW_NOTE_3
 10
335.3727828453
 20
441.7097240148
 30
0.0
  0
LEADER
  5
1FD
330
1F
100
AcDbEntity
  8
0
  6
Continuous
 62
     7
370
     0
100
AcDbLeader
  3
SLDDIMSTYLE1
 76
     2
 10
324.2623248507
 20
422.8133377147
 30
0.0
 10
335.3727828453
 20
441.7097240148
 30
0.0
  0
LINE
  5
1FE
330
1F
100
AcDbEntity
  8
0
  6
Continuous
 62
     7
370
    15
100
AcDbLine
 10
825.0922665314998
 20
396.366725101
 30
0.0
 11
830.0922696371001
 21
396.3667252649
 31
0.0
  0
LINE
  5
1FF
330
1F
100
AcDbEntity
  8
0
  6
Continuous
 62
     7
370
    15
100
AcDbLine
 10
830.0922696371001
 20
402.8667252648999
 30
0.0
 11
825.0922665314998
 21
402.8667252351
 31
0.0
  0
LINE
  5
200
330
1F
100
AcDbEntity
  8
0
  6
Continuous
 62
     7
370
    15
100
AcDbLine
 10
832.0922732669
 20
396.6167256076
 30
0.0
 11
836.0922696371002
 21
396.6167252649
 31
0.0
  0
LINE
  5
201
330
1F
100
AcDbEntity
  8
0
  6
Continuous
 62
     7
370
    15
100
AcDbLine
 10
836.0922696371002
 20
402.6167252648999
 30
0.0
 11
832.0922732669
 21
402.6167247283996
 31
0.0
  0
LINE
  5
202
330
1F
100
AcDbEntity
  8
0
  6
Continuous
 62
     7
370
    15
100
AcDbLine
 10
686.0922679619999
 20
432.7167276133
 30
0.0
 11
686.0922679619999
 21
427.6167269635998
 31
0.0
  0
LINE
  5
203
330
1F
100
AcDbEntity
  8
0
  6
Continuous
 62
     7
370
    15
100
AcDbLine
 10
686.0922679619999
 20
403.0963335026
 30
0.0
 11
686.0922679619999
 21
387.616725995
 31
0.0
  0
LINE
  5
204
330
1F
100
AcDbEntity
  8
0
  6
Continuous
 62
     7
370
    15
100
AcDbLine
 10
686.0922679619999
 20
386.0167249877
 30
0.0
 11
686.0922679619999
 21
368.1167253599
 31
0.0
  0
LINE
  5
205
330
1F
100
AcDbEntity
  8
0
  6
Continuous
 62
     7
370
    15
100
AcDbLine
 10
753.092269631
 20
432.7167276133
 30
0.0
 11
753.092269631
 21
431.1167228807
 31
0.0
  0
LINE
  5
206
330
1F
100
AcDbEntity
  8
0
  6
Continuous
 62
     7
370
    15
100
AcDbLine
 10
687.6922726947
 20
431.1167228807
 30
0.0
 11
687.6922726947
 21
427.6167269635998
 31
0.0
  0
LINE
  5
207
330
1F
100
AcDbEntity
  8
0
  6
Continuous
 62
     7
370
    15
100
AcDbLine
 10
687.6922726947
 20
402.2548425783
 30
0.0
 11
687.6922726947
 21
387.616725995
 31
0.0
  0
LINE
  5
208
330
1F
100
AcDbEntity
  8
0
  6
Continuous
 62
     7
370
    15
100
AcDbLine
 10
687.6922726947
 20
374.6167257268
 30
0.0
 11
687.6922726947
 21
368.1167253599
 31
0.0
  0
LINE
  5
209
330
1F
100
AcDbEntity
  8
0
  6
Continuous
 62
     7
370
    15
100
AcDbLine
 10
687.6922726947
 20
431.1167228807
 30
0.0
 11
753.092269631
 21
431.1167228807
 31
0.0
  0
LINE
  5
20A
330
1F
100
AcDbEntity
  8
0
  6
Continuous
 62
     7
370
    15
100
AcDbLine
 10
686.0922679619999
 20
432.7167276133
 30
0.0
 11
753.092269631
 21
432.7167276133
 31
0.0
  0
LINE
  5
20B
330
1F
100
AcDbEntity
  8
0
  6
Continuous
 62
     7
370
    15
100
AcDbLine
 10
686.0922679619999
 20
368.1167253599
 30
0.0
 11
687.6922726947
 21
368.1167253599
 31
0.0
  0
LINE
  5
20C
330
1F
100
AcDbEntity
  8
0
  6
Continuous
 62
     7
370
    15
100
AcDbLine
 10
835.0922718960001
 20
432.7167276133
 30
0.0
 11
835.0922718960001
 21
402.6167247283996
 31
0.0
  0
LINE
  5
20D
330
1F
100
AcDbEntity
  8
0
  6
Continuous
 62
     7
370
    15
100
AcDbLine
 10
835.0922718960001
 20
396.6167256076
 30
0.0
 11
835.0922718960001
 21
368.1167253599
 31
0.0
  0
LINE
  5
20E
330
1F
100
AcDbEntity
  8
0
  6
Continuous
 62
     7
370
    15
100
AcDbLine
 10
833.4922671633
 20
431.1167228807
 30
0.0
 11
833.4922671633
 21
402.6167247283996
 31
0.0
  0
LINE
  5
20F
330
1F
100
AcDbEntity
  8
0
  6
Continuous
 62
     7
370
    15
100
AcDbLine
 10
833.4922671633
 20
396.6167256076
 30
0.0
 11
833.4922671633
 21
368.1167253599
 31
0.0
  0
LINE
  5
210
330
1F
100
AcDbEntity
  8
0
  6
Continuous
 62
     7
370
    15
100
AcDbLine
 10
753.092269631
 20
431.1167228807
 30
0.0
 11
833.4922671633
 21
431.1167228807
 31
0.0
  0
LINE
  5
211
330
1F
100
AcDbEntity
  8
0
  6
Continuous
 62
     7
370
    15
100
AcDbLine
 10
753.092269631
 20
432.7167276133
 30
0.0
 11
835.0922718960001
 21
432.7167276133
 31
0.0
  0
LINE
  5
212
330
1F
100
AcDbEntity
  8
0
  6
Continuous
 62
     7
370
    15
100
AcDbLine
 10
833.4922671633
 20
368.1167253599
 30
0.0
 11
835.0922718960001
 21
368.1167253599
 31
0.0
  0
LINE
  5
213
330
1F
100
AcDbEntity
  8
0
  6
Continuous
 62
     7
370
    15
100
AcDbLine
 10
833.4922671633
 20
369.716725203
 30
0.0
 11
833.0922678427999
 21
369.716725203
 31
0.0
  0
LINE
  5
214
330
1F
100
AcDbEntity
  8
0
  6
Continuous
 62
     7
370
    15
100
AcDbLine
 10
688.0922720152
 20
369.716725203
 30
0.0
 11
687.6922726947
 21
369.716725203
 31
0.0
  0
LINE
  5
215
330
1F
100
AcDbEntity
  8
0
  6
Continuous
 62
     7
370
    15
100
AcDbLine
 10
687.6922726947
 20
368.1167253599
 30
0.0
 11
688.0922720152
 21
368.1167253599
 31
0.0
  0
LINE
  5
216
330
1F
100
AcDbEntity
  8
0
  6
Continuous
 62
     7
370
    15
100
AcDbLine
 10
833.0922678427999
 20
368.1167253599
 30
0.0
 11
833.4922671633
 21
368.1167253599
 31
0.0
  0
LINE
  5
217
330
1F
100
AcDbEntity
  8
0
  6
Continuous
 62
     7
370
    15
100
AcDbLine
 10
688.0922720152
 20
431.1167228807
 30
0.0
 11
688.0922720152
 21
427.6167269635998
 31
0.0
  0
LINE
  5
218
330
1F
100
AcDbEntity
  8
0
  6
Continuous
 62
     7
370
    15
100
AcDbLine
 10
688.0922720152
 20
402.111370473
 30
0.0
 11
688.0922720152
 21
388.8671140958
 31
0.0
  0
LINE
  5
219
330
1F
100
AcDbEntity
  8
0
  6
Continuous
 62
     7
370
    15
100
AcDbLine
 10
688.0922696371001
 20
374.6167252649
 30
0.0
 11
688.0922720152
 21
368.1167253599
 31
0.0
  0
LINE
  5
21A
330
1F
100
AcDbEntity
  8
0
  6
Continuous
 62
     7
370
    15
100
AcDbLine
 10
753.092269631
 20
431.1167228807
 30
0.0
 11
753.092269631
 21
427.6167269635998
 31
0.0
  0
LINE
  5
21B
330
1F
100
AcDbEntity
  8
0
  6
Continuous
 62
     7
370
    15
100
AcDbLine
 10
753.092269631
 20
402.111370473
 30
0.0
 11
753.0922700458997
 21
388.6167012185
 31
0.0
  0
LINE
  5
21C
330
1F
100
AcDbEntity
  8
0
  6
Continuous
 62
     7
370
    15
100
AcDbLine
 10
753.092269631
 20
377.9071349491001
 30
0.0
 11
753.092269631
 21
368.1167253599
 31
0.0
  0
LINE
  5
21D
330
1F
100
AcDbEntity
  8
0
  6
Continuous
 62
     7
370
    15
100
AcDbLine
 10
688.0922720152
 20
431.1167228807
 30
0.0
 11
753.092269631
 21
431.1167228807
 31
0.0
  0
LINE
  5
21E
330
1F
100
AcDbEntity
  8
0
  6
Continuous
 62
     7
370
    15
100
AcDbLine
 10
688.0922720152
 20
368.1167253599
 30
0.0
 11
691.3060129003999
 21
368.1167253599
 31
0.0
  0
LINE
  5
21F
330
1F
100
AcDbEntity
  8
0
  6
Continuous
 62
     7
370
    15
100
AcDbLine
 10
749.8785271158998
 20
368.1167253599
 30
0.0
 11
753.092269631
 21
368.1167253599
 31
0.0
  0
LINE
  5
220
330
1F
100
AcDbEntity
  8
0
  6
Continuous
 62
     7
370
    15
100
AcDbLine
 10
833.0922678427999
 20
431.1167228807
 30
0.0
 11
833.0922678427999
 21
402.6167247283996
 31
0.0
  0
LINE
  5
221
330
1F
100
AcDbEntity
  8
0
  6
Continuous
 62
     7
370
    15
100
AcDbLine
 10
833.0922678427999
 20
396.6167256076
 30
0.0
 11
833.0922678427999
 21
368.1167253599
 31
0.0
  0
ARC
  5
222
330
1F
100
AcDbEntity
  8
0
  6
Continuous
 62
     7
370
    15
100
AcDbCircle
 10
818.0628323856
 20
382.6461625164
 30
0.0
 40
2.0
100
AcDbArc
 50
270.0
 51
90.0
  0
LINE
  5
223
330
1F
100
AcDbEntity
  8
0
  6
Continuous
 62
     7
370
    15
100
AcDbLine
 10
818.0628323856
 20
384.6461625164
 30
0.0
 11
817.0922726708001
 21
384.6461627472
 31
0.0
  0
LINE
  5
224
330
1F
100
AcDbEntity
  8
0
  6
Continuous
 62
     7
370
    15
100
AcDbLine
 10
815.1971727924998
 20
384.6461627472
 30
0.0
 11
811.5142800229
 21
384.6461627472
 31
0.0
  0
LINE
  5
225
330
1F
100
AcDbEntity
  8
0
  6
Continuous
 62
     7
370
    15
100
AcDbLine
 10
817.0922726708001
 20
380.6461620916
 30
0.0
 11
818.0628323856
 21
380.6461625164
 31
0.0
  0
ARC
  5
226
330
1F
100
AcDbEntity
  8
0
  6
Continuous
 62
     7
370
    15
100
AcDbCircle
 10
818.0628323856
 20
416.5872880133996
 30
0.0
 40
2.0
100
AcDbArc
 50
270.0
 51
90.0
  0
LINE
  5
227
330
1F
100
AcDbEntity
  8
0
  6
Continuous
 62
     7
370
    15
100
AcDbLine
 10
818.0628323856
 20
418.5872880134
 30
0.0
 11
817.0922726708001
 21
418.5872863818
 31
0.0
  0
LINE
  5
228
330
1F
100
AcDbEntity
  8
0
  6
Continuous
 62
     7
370
    15
100
AcDbLine
 10
817.0922726708001
 20
414.5872894514996
 30
0.0
 11
818.0628323856
 21
414.5872880134
 31
0.0
  0
ARC
  5
229
330
1F
100
AcDbEntity
  8
0
  6
Continuous
 62
     7
370
    15
100
AcDbCircle
 10
776.1217068886
 20
382.6461625164
 30
0.0
 40
2.0
100
AcDbArc
 50
90.0
 51
270.0
  0
LINE
  5
22A
330
1F
100
AcDbEntity
  8
0
  6
Continuous
 62
     7
370
    15
100
AcDbLine
 10
776.1217068886
 20
380.6461625164
 30
0.0
 11
777.0922698396
 21
380.6461620916
 31
0.0
  0
LINE
  5
22B
330
1F
100
AcDbEntity
  8
0
  6
Continuous
 62
     7
370
    15
100
AcDbLine
 10
777.0922698396
 20
384.6461627472
 30
0.0
 11
776.1217068886
 21
384.6461625164
 31
0.0
  0
ARC
  5
22C
330
1F
100
AcDbEntity
  8
0
  6
Continuous
 62
     7
370
    15
100
AcDbCircle
 10
776.1217068886
 20
416.5872880133996
 30
0.0
 40
2.000000000000053
100
AcDbArc
 50
90.0
 51
270.0
  0
LINE
  5
22D
330
1F
100
AcDbEntity
  8
0
  6
Continuous
 62
     7
370
    15
100
AcDbLine
 10
776.1217068886
 20
414.5872880134
 30
0.0
 11
777.0922698396
 21
414.5872894514996
 31
0.0
  0
LINE
  5
22E
330
1F
100
AcDbEntity
  8
0
  6
Continuous
 62
     7
370
    15
100
AcDbLine
 10
778.9873659926
 20
414.5872894514996
 30
0.0
 11
782.6702606248
 21
414.5872894514996
 31
0.0
  0
LINE
  5
22F
330
1F
100
AcDbEntity
  8
0
  6
Continuous
 62
     7
370
    15
100
AcDbLine
 10
777.0922698396
 20
418.5872863818
 30
0.0
 11
776.1217068886
 21
418.5872880134
 31
0.0
  0
LINE
  5
230
330
1F
100
AcDbEntity
  8
0
  6
Continuous
 62
     7
370
    15
100
AcDbLine
 10
753.092269631
 20
431.1167228807
 30
0.0
 11
833.0922678427999
 21
431.1167228807
 31
0.0
  0
LINE
  5
231
330
1F
100
AcDbEntity
  8
0
  6
Continuous
 62
     7
370
    15
100
AcDbLine
 10
753.092269631
 20
368.1167253599
 30
0.0
 11
833.0922678427999
 21
368.1167253599
 31
0.0
  0
LINE
  5
232
330
1F
100
AcDbEntity
  8
0
  6
Continuous
 62
     7
370
    15
100
AcDbLine
 10
692.0922689454998
 20
411.1167233276999
 30
0.0
 11
692.0922710388
 21
422.6167253673999
 31
0.0
  0
LINE
  5
233
330
1F
100
AcDbEntity
  8
0
  6
Continuous
 62
     7
370
    15
100
AcDbLine
 10
728.3922687488
 20
367.6167252779
 30
0.0
 11
748.5556515667999
 21
367.6167252649
 31
0.0
  0
LINE
  5
234
330
1F
100
AcDbEntity
  8
0
  6
Continuous
 62
     7
370
    15
100
AcDbLine
 10
728.3922687488
 20
367.6167252779
 30
0.0
 11
728.0922692583998
 21
367.916725234
 31
0.0
  0
LINE
  5
235
330
1F
100
AcDbEntity
  8
0
  6
Continuous
 62
     7
370
    15
100
AcDbLine
 10
728.0922692583998
 20
367.916725234
 30
0.0
 11
713.092270525
 21
367.916725234
 31
0.0
  0
LINE
  5
236
330
1F
100
AcDbEntity
  8
0
  6
Continuous
 62
     7
370
    15
100
AcDbLine
 10
713.092270525
 20
367.916725234
 30
0.0
 11
712.7922691719998
 21
367.6167252779
 31
0.0
  0
LINE
  5
237
330
1F
100
AcDbEntity
  8
0
  6
Continuous
 62
     7
370
    15
100
AcDbLine
 10
692.6288877074
 20
367.6167252649
 30
0.0
 11
712.7922691719998
 21
367.6167252779
 31
0.0
  0
ARC
  5
238
330
1F
100
AcDbEntity
  8
0
  6
Continuous
 62
     7
370
    15
100
AcDbCircle
 10
692.6288877074
 20
369.6167252649
 30
0.0
 40
2.0
100
AcDbArc
 50
207.4409633088
 51
270.0
  0
ARC
  5
239
330
1F
100
AcDbEntity
  8
0
  6
Continuous
 62
     7
370
    15
100
AcDbCircle
 10
713.0410689482999
 20
380.2159166015
 30
0.0
 40
25.00000000000006
100
AcDbArc
 50
183.6675806797
 51
196.7147139113
  0
ARC
  5
23A
330
1F
100
AcDbEntity
  8
0
  6
Continuous
 62
     7
370
    15
100
AcDbCircle
 10
713.0410689482999
 20
380.2159166015
 30
0.0
 40
25.00000000000001
100
AcDbArc
 50
197.6043000507
 51
207.4409633088
  0
LINE
  5
23B
330
1F
100
AcDbEntity
  8
0
  6
Continuous
 62
     7
370
    15
100
AcDbLine
 10
688.0922696371001
 20
388.6167252649
 30
0.0
 11
688.0922700458998
 21
388.6167031166
 31
0.0
  0
ARC
  5
23C
330
1F
100
AcDbEntity
  8
0
  6
Continuous
 62
     7
370
    15
100
AcDbCircle
 10
713.0410689482999
 20
387.0175339282
 30
0.0
 40
25.00000000000006
100
AcDbArc
 50
169.3990490193
 51
176.3324193202999
  0
LINE
  5
23D
330
1F
100
AcDbEntity
  8
0
  6
Continuous
 62
     7
370
    15
100
AcDbLine
 10
696.5408280807
 20
396.7417239983
 30
0.0
 11
696.0212115532997
 21
396.4417235231
 31
0.0
  0
ARC
  5
23E
330
1F
100
AcDbEntity
  8
0
  6
Continuous
 62
     7
370
    15
100
AcDbCircle
 10
694.5922696371001
 20
395.6167235231
 30
0.0
 40
1.65000000000007
100
AcDbArc
 50
30.0
 51
330.0
  0
LINE
  5
23F
330
1F
100
AcDbEntity
  8
0
  6
Continuous
 62
     7
370
    15
100
AcDbLine
 10
696.0212115532997
 20
394.7917235231
 30
0.0
 11
696.5408280807
 21
394.4917231638
 31
0.0
  0
LINE
  5
240
330
1F
100
AcDbEntity
  8
0
  6
Continuous
 62
     7
370
    15
100
AcDbLine
 10
745.1633277208998
 20
396.4417235231
 30
0.0
 11
744.6437126341
 21
396.7417239983
 31
0.0
  0
ARC
  5
241
330
1F
100
AcDbEntity
  8
0
  6
Continuous
 62
     7
370
    15
100
AcDbCircle
 10
728.1434703259
 20
387.0175339282
 30
0.0
 40
25.00000018114029
100
AcDbArc
 50
7.3696690822
 51
10.6009463355
  0
LINE
  5
242
330
1F
100
AcDbEntity
  8
0
  6
Continuous
 62
     7
370
    15
100
AcDbLine
 10
752.7506268083998
 20
390.1167254735
 30
0.0
 11
752.9369504388996
 21
390.2242992594
 31
0.0
  0
CIRCLE
  5
243
330
1F
100
AcDbEntity
  8
0
  6
Continuous
 62
     7
370
    15
100
AcDbCircle
 10
745.5922696371001
 20
374.6167252649
 30
0.0
 40
1.649999999999975
  0
CIRCLE
  5
244
330
1F
100
AcDbEntity
  8
0
  6
Continuous
 62
     7
370
    15
100
AcDbCircle
 10
695.5922696371001
 20
374.6167252649
 30
0.0
 40
1.649999999999975
  0
LINE
  5
245
330
1F
100
AcDbEntity
  8
0
  6
Continuous
 62
     7
370
    15
100
AcDbLine
 10
744.6437126341
 20
394.4917231638
 30
0.0
 11
745.1633277208998
 21
394.7917235231
 31
0.0
  0
ARC
  5
246
330
1F
100
AcDbEntity
  8
0
  6
Continuous
 62
     7
370
    15
100
AcDbCircle
 10
746.5922696371001
 20
395.6167235231
 30
0.0
 40
1.649999999999971
100
AcDbArc
 50
210.0
 51
150.0
  0
ARC
  5
247
330
1F
100
AcDbEntity
  8
0
  6
Continuous
 62
     7
370
    15
100
AcDbCircle
 10
748.5556515667999
 20
369.6167252649
 30
0.0
 40
2.0
100
AcDbArc
 50
270.0
 51
332.5590366912
  0
ARC
  5
248
330
1F
100
AcDbEntity
  8
0
  6
Continuous
 62
     7
370
    15
100
AcDbCircle
 10
728.1434703259
 20
380.2159166015
 30
0.0
 40
25.00000000000001
100
AcDbArc
 50
332.5590366912
 51
344.8448853190001
  0
ARC
  5
249
330
1F
100
AcDbEntity
  8
0
  6
Continuous
 62
     7
370
    15
100
AcDbCircle
 10
728.1434703259
 20
380.2159166015
 30
0.0
 40
25.00000000000006
100
AcDbArc
 50
348.5182937588
 51
356.3324193203
  0
LINE
  5
24A
330
1F
100
AcDbEntity
  8
0
  6
Continuous
 62
     7
370
    15
100
AcDbLine
 10
688.0922696371001
 20
374.6167252649
 30
0.0
 11
686.4922696370999
 21
374.6167252649
 31
0.0
  0
LINE
  5
24B
330
1F
100
AcDbEntity
  8
0
  6
Continuous
 62
     7
370
    15
100
AcDbLine
 10
686.4922696370999
 20
374.6167252649
 30
0.0
 11
686.4922696370999
 21
375.6167252649
 31
0.0
  0
LINE
  5
24C
330
1F
100
AcDbEntity
  8
0
  6
Continuous
 62
     7
370
    15
100
AcDbLine
 10
688.0922696371001
 20
375.6167252649
 30
0.0
 11
688.0922696371001
 21
374.6167252649
 31
0.0
  0
LINE
  5
24D
330
1F
100
AcDbEntity
  8
0
  6
Continuous
 62
     7
370
    15
100
AcDbLine
 10
686.4922672826
 20
386.0167249877
 30
0.0
 11
669.0922696371
 21
386.0167252649
 31
0.0
  0
LINE
  5
24E
330
1F
100
AcDbEntity
  8
0
  6
Continuous
 62
     7
370
    15
100
AcDbLine
 10
688.0922720152
 20
377.9071368117
 30
0.0
 11
688.0922696371001
 21
375.6167252649
 31
0.0
  0
LINE
  5
24F
330
1F
100
AcDbEntity
  8
0
  6
Continuous
 62
     7
370
    15
100
AcDbLine
 10
686.4922696370999
 20
375.6167252649
 30
0.0
 11
686.4922672826
 21
386.0167249877
 31
0.0
  0
LINE
  5
250
330
1F
100
AcDbEntity
  8
0
  6
Continuous
 62
     7
370
    15
100
AcDbLine
 10
669.0922696371
 20
387.6167252649
 30
0.0
 11
688.0922720152
 21
387.616725995
 31
0.0
  0
LINE
  5
251
330
1F
100
AcDbEntity
  8
0
  6
Continuous
 62
     7
370
    15
100
AcDbLine
 10
668.0922696370998
 20
386.0167252649
 30
0.0
 11
668.0922696370998
 21
387.6167252649
 31
0.0
  0
LINE
  5
252
330
1F
100
AcDbEntity
  8
0
  6
Continuous
 62
     7
370
    15
100
AcDbLine
 10
669.0922696371
 20
386.0167252649
 30
0.0
 11
668.0922696370998
 21
386.0167252649
 31
0.0
  0
LINE
  5
253
330
1F
100
AcDbEntity
  8
0
  6
Continuous
 62
     7
370
    15
100
AcDbLine
 10
668.0922696370998
 20
387.6167252649
 30
0.0
 11
669.0922696371
 21
387.6167252649
 31
0.0
  0
ARC
  5
254
330
1F
100
AcDbEntity
  8
0
  6
Continuous
 62
     7
370
    15
100
AcDbCircle
 10
751.0922704146
 20
401.2426020853999
 30
0.0
 40
2.000000000000115
100
AcDbArc
 50
179.9999983269
 51
211.7931654114
  0
LINE
  5
255
330
1F
100
AcDbEntity
  8
0
  6
Continuous
 62
     7
370
    15
100
AcDbLine
 10
748.4692984576
 20
399.6167223741
 30
0.0
 11
747.4376133027
 21
399.6167223741
 31
0.0
  0
ARC
  5
256
330
1F
100
AcDbEntity
  8
0
  6
Continuous
 62
     7
370
    15
100
AcDbCircle
 10
690.0922704146
 20
401.2426038666998
 30
0.0
 40
1.999999999999953
100
AcDbArc
 50
328.2068312423
 51
359.9999983269
  0
LINE
  5
257
330
1F
100
AcDbEntity
  8
0
  6
Continuous
 62
     7
370
    15
100
AcDbLine
 10
693.7469274121
 20
399.6167260993
 30
0.0
 11
692.7152417916
 21
399.6167260993
 31
0.0
  0
LWPOLYLINE
  5
258
330
1F
100
AcDbEntity
  8
0
  6
Continuous
 62
     7
370
    15
100
AcDbPolyline
 90
        3
 70
   128
 43
0.0
 10
752.7167782677
 20
391.6167229254
 10
752.9491237214
 20
390.1287358094
 10
753.0922700384
 20
388.6167242963
  0
ARC
  5
259
330
1F
100
AcDbEntity
  8
0
  6
Continuous
 62
     7
370
    15
100
AcDbCircle
 10
750.3481360880998
 20
422.5060792392
 30
0.0
 40
34.00029653624315
100
AcDbArc
 50
271.254081331
 51
274.6293270219
  0
LINE
  5
25A
330
1F
100
AcDbEntity
  8
0
  6
Continuous
 62
     7
370
    15
100
AcDbLine
 10
750.6839538541002
 20
391.6167229254
 30
0.0
 11
752.7167782728
 21
391.6167235966999
 31
0.0
  0
LINE
  5
25B
330
1F
100
AcDbEntity
  8
0
  6
Continuous
 62
     7
370
    15
100
AcDbLine
 10
688.0922700458998
 20
388.6167031166
 30
0.0
 11
688.0922696371001
 21
388.6167252649
 31
0.0
  0
LWPOLYLINE
  5
25C
330
1F
100
AcDbEntity
  8
0
  6
Continuous
 62
     7
370
    15
100
AcDbPolyline
 90
        3
 70
   128
 43
0.0
 10
688.0922720152
 20
388.616726159
 10
688.2354200202001
 20
390.1287376721
 10
688.4677589255
 20
391.6167247880001
  0
LINE
  5
25D
330
1F
100
AcDbEntity
  8
0
  6
Continuous
 62
     7
370
    15
100
AcDbLine
 10
688.4677619942999
 20
391.6167254729
 30
0.0
 11
690.5005865114
 21
391.6167247880001
 31
0.0
  0
ARC
  5
25E
330
1F
100
AcDbEntity
  8
0
  6
Continuous
 62
     7
370
    15
100
AcDbCircle
 10
690.836458943
 20
422.5070871743
 30
0.0
 40
34.00130360245777
100
AcDbArc
 50
265.370720826
 51
268.7458607364
  0
LWPOLYLINE
  5
25F
330
1F
100
AcDbEntity
  8
0
  6
Continuous
 62
     7
370
    15
100
AcDbPolyline
 90
        9
 70
   128
 43
0.0
 10
753.0922700384
 20
388.6167019446
 10
753.0922700384
 20
387.3635403652
 10
753.0922699802
 20
386.1108742494
 10
753.092269922
 20
384.8589066256
 10
753.092269922
 20
383.6078423847
 10
753.0922698638001
 20
382.3578882802
 10
753.0922698055998
 20
381.1092482719999
 10
753.0922698055998
 20
379.8621253882
 10
753.0922697474001
 20
378.6167235885
  0
ARC
  5
260
330
1F
100
AcDbEntity
  8
0
  6
Continuous
 62
     7
370
    15
100
AcDbCircle
 10
751.6420873949
 20
383.7467282863
 30
0.0
 40
5.331900515455865
100
AcDbArc
 50
264.0812234445
 51
285.7816043907
  0
LINE
  5
261
330
1F
100
AcDbEntity
  8
0
  6
Continuous
 62
     7
370
    15
100
AcDbLine
 10
688.0922696371001
 20
378.6167252649
 30
0.0
 11
688.0922697539
 21
378.6167254843
 31
0.0
  0
LINE
  5
262
330
1F
100
AcDbEntity
  8
0
  6
Continuous
 62
     7
370
    15
100
AcDbLine
 10
688.0922697539
 20
378.6167254843
 30
0.0
 11
688.0922700458998
 21
388.6167031166
 31
0.0
  0
ARC
  5
263
330
1F
100
AcDbEntity
  8
0
  6
Continuous
 62
     7
370
    15
100
AcDbCircle
 10
689.5424452322
 20
383.7466252451
 30
0.0
 40
5.331796764752068
100
AcDbArc
 50
254.218195523
 51
275.9189543619
  0
LWPOLYLINE
  5
264
330
1F
100
AcDbEntity
  8
0
  6
Continuous
 62
     7
370
    15
100
AcDbPolyline
 90
        9
 70
   128
 43
0.0
 10
749.0922710708
 20
422.6167242813998
 10
749.0922710708
 20
420.0534153569998
 10
749.092270838
 20
417.4782786357996
 10
749.092270838
 20
414.8931395101999
 10
749.092270838
 20
412.2998270976999
 10
749.0922706051
 20
409.7001742412
 10
749.0922706051
 20
407.0960249591998
 10
749.0922706051
 20
404.4892232705
 10
749.0922703722998
 20
401.8816131938
  0
ARC
  5
265
330
1F
100
AcDbEntity
  8
0
  6
Continuous
 62
     7
370
    15
100
AcDbCircle
 10
747.7043147648998
 20
453.9837762623
 30
0.0
 40
52.12064674557204
100
AcDbArc
 50
269.3271695413
 51
271.5259480716
  0
LINE
  5
266
330
1F
100
AcDbEntity
  8
0
  6
Continuous
 62
     7
370
    15
100
AcDbLine
 10
694.0922692732997
 20
401.8667269337998
 30
0.0
 11
747.0922705100999
 21
401.8667232084998
 31
0.0
  0
LWPOLYLINE
  5
267
330
1F
100
AcDbEntity
  8
0
  6
Continuous
 62
     7
370
    15
100
AcDbPolyline
 90
        9
 70
   128
 43
0.0
 10
692.0922689454998
 20
401.8816169191
 10
692.0922689454998
 20
404.4892269958
 10
692.0922689454998
 20
407.0960286844997
 10
692.0922689454998
 20
409.7001779664998
 10
692.0922689454998
 20
412.2998270976999
 10
692.0922726708
 20
414.8931432354999
 10
692.0922726708
 20
417.4782823611
 10
692.0922726708
 20
420.0534153569998
 10
692.0922726708
 20
422.6167242813998
  0
ARC
  5
268
330
1F
100
AcDbEntity
  8
0
  6
Continuous
 62
     7
370
    15
100
AcDbCircle
 10
693.4802279439
 20
453.9842163191
 30
0.0
 40
52.12108301270604
100
AcDbArc
 50
268.4740609751
 51
270.6728216107001
  0
ARC
  5
269
330
1F
100
AcDbEntity
  8
0
  6
Continuous
 62
     7
370
    15
100
AcDbCircle
 10
728.1434703336
 20
380.2159157135
 30
0.0
 40
25.00000017219946
100
AcDbArc
 50
333.9538282071
 51
356.3303236333
  0
CIRCLE
  5
26A
330
1F
100
AcDbEntity
  8
0
  6
Continuous
 62
     7
370
    15
100
AcDbCircle
 10
695.5922701478
 20
374.6167333561
 30
0.0
 40
4.000002215572521
  0
CIRCLE
  5
26B
330
1F
100
AcDbEntity
  8
0
  6
Continuous
 62
     7
370
    15
100
AcDbCircle
 10
745.5922695185001
 20
374.6167233138
 30
0.0
 40
3.999999909862633
  0
LWPOLYLINE
  5
26C
330
1F
100
AcDbEntity
  8
0
  6
Continuous
 62
     7
370
    15
100
AcDbPolyline
 90
        3
 70
   128
 43
0.0
 10
695.9842101055
 20
391.8667252947
 10
695.8755992667999
 20
391.8281815786
 10
694.5922702866
 20
391.6167247880001
  0
LINE
  5
26D
330
1F
100
AcDbEntity
  8
0
  6
Continuous
 62
     7
370
    15
100
AcDbLine
 10
695.9842112314999
 20
391.8667252534
 30
0.0
 11
745.2003290500999
 21
391.8667238162
 31
0.0
  0
ARC
  5
26E
330
1F
100
AcDbEntity
  8
0
  6
Continuous
 62
     7
370
    15
100
AcDbCircle
 10
746.5922861714999
 20
395.6168036777
 30
0.0
 40
4.000080752298956
100
AcDbArc
 50
249.6360520828
 51
269.9997678276
  0
LINE
  5
26F
330
1F
100
AcDbEntity
  8
0
  6
Continuous
 62
     7
370
    15
100
AcDbLine
 10
694.5922702866
 20
391.6167247880001
 30
0.0
 11
690.5005865114
 21
391.6167247880001
 31
0.0
  0
LINE
  5
270
330
1F
100
AcDbEntity
  8
0
  6
Continuous
 62
     7
370
    15
100
AcDbLine
 10
750.6839538541002
 20
391.6167229254
 30
0.0
 11
746.5922699625
 21
391.6167229254
 31
0.0
  0
ARC
  5
271
330
1F
100
AcDbEntity
  8
0
  6
Continuous
 62
     7
370
    15
100
AcDbCircle
 10
713.0410421522998
 20
380.2158955645
 30
0.0
 40
24.99996838502071
100
AcDbArc
 50
183.6696304883
 51
206.0461518417
  0
LINE
  5
272
330
1F
100
AcDbEntity
  8
0
  6
Continuous
 62
     7
370
    15
100
AcDbLine
 10
749.0922704333
 20
401.8816135273999
 30
0.0
 11
749.0922704146001
 21
401.2426021437999
 31
0.0
  0
LINE
  5
273
330
1F
100
AcDbEntity
  8
0
  6
Continuous
 62
     7
370
    15
100
AcDbLine
 10
732.6717369574001
 20
395.3589428056
 30
0.0
 11
733.6069599108998
 21
399.8207416225
 31
0.0
  0
LINE
  5
274
330
1F
100
AcDbEntity
  8
0
  6
Continuous
 62
     7
370
    15
100
AcDbLine
 10
733.8098075555998
 20
395.3589428056
 30
0.0
 11
732.6717369574001
 21
395.3589428056
 31
0.0
  0
LINE
  5
275
330
1F
100
AcDbEntity
  8
0
  6
Continuous
 62
     7
370
    15
100
AcDbLine
 10
734.5755987185
 20
398.9885527480999
 30
0.0
 11
733.8098075555998
 21
395.3589428056
 31
0.0
  0
LINE
  5
276
330
1F
100
AcDbEntity
  8
0
  6
Continuous
 62
     7
370
    15
100
AcDbLine
 10
736.0171566297
 20
398.9885508554
 30
0.0
 11
734.5755987185
 21
398.9885527480999
 31
0.0
  0
ARC
  5
277
330
1F
100
AcDbEntity
  8
0
  6
Continuous
 62
     7
370
    15
100
AcDbCircle
 10
735.9738712296
 20
398.5330004349
 30
0.0
 40
0.4576022415114497
100
AcDbArc
 50
258.8102544673
 51
84.5721765961
  0
LINE
  5
278
330
1F
100
AcDbEntity
  8
0
  6
Continuous
 62
     7
370
    15
100
AcDbLine
 10
735.0714131849001
 20
398.0840972804
 30
0.0
 11
735.8850694958
 21
398.0840972566
 31
0.0
  0
ARC
  5
279
330
1F
100
AcDbEntity
  8
0
  6
Continuous
 62
     7
370
    15
100
AcDbCircle
 10
735.0714131707
 20
397.5965972804
 30
0.0
 40
0.4875000000011136
100
AcDbArc
 50
89.99999832689999
 51
202.0266759968
  0
ARC
  5
27A
330
1F
100
AcDbEntity
  8
0
  6
Continuous
 62
     7
370
    15
100
AcDbCircle
 10
735.2912324938
 20
397.685529125
 30
0.0
 40
0.7246274084039463
100
AcDbArc
 50
202.0266759968
 51
203.8095465716
  0
LINE
  5
27B
330
1F
100
AcDbEntity
  8
0
  6
Continuous
 62
     7
370
    15
100
AcDbLine
 10
735.5208091753
 20
395.3589428056
 30
0.0
 11
734.6282763728999
 21
397.3929986775
 31
0.0
  0
LINE
  5
27C
330
1F
100
AcDbEntity
  8
0
  6
Continuous
 62
     7
370
    15
100
AcDbLine
 10
736.8864968733998
 20
395.3589428056
 30
0.0
 11
735.5208091753
 21
395.3589428056
 31
0.0
  0
LINE
  5
27D
330
1F
100
AcDbEntity
  8
0
  6
Continuous
 62
     7
370
    15
100
AcDbLine
 10
736.8864968733998
 20
395.3589428056
 30
0.0
 11
735.9939620213999
 21
397.3929997374
 31
0.0
  0
LINE
  5
27E
330
1F
100
AcDbEntity
  8
0
  6
Continuous
 62
     7
370
    15
100
AcDbLine
 10
735.9939620213999
 20
397.3929997374
 30
0.0
 11
736.2872275439
 21
397.3929986291
 31
0.0
  0
ARC
  5
27F
330
1F
100
AcDbEntity
  8
0
  6
Continuous
 62
     7
370
    15
100
AcDbCircle
 10
736.3892412828
 20
398.6068705665
 30
0.0
 40
1.21815101007847
100
AcDbArc
 50
265.1961536333
 51
85.1961536333
  0
LINE
  5
280
330
1F
100
AcDbEntity
  8
0
  6
Continuous
 62
     7
370
    15
100
AcDbLine
 10
736.4912550217999
 20
399.8207425039
 30
0.0
 11
733.6069599108998
 21
399.8207416225
 31
0.0
  0
LINE
  5
281
330
1F
100
AcDbEntity
  8
0
  6
Continuous
 62
     7
370
    15
100
AcDbLine
 10
732.2010726052
 20
397.297315656
 30
0.0
 11
732.3718231486999
 21
398.1948125947
 31
0.0
  0
LINE
  5
282
330
1F
100
AcDbEntity
  8
0
  6
Continuous
 62
     7
370
    15
100
AcDbLine
 10
732.3718231486999
 20
398.1948125947
 30
0.0
 11
730.2734416294001
 21
398.1948125947
 31
0.0
  0
LINE
  5
283
330
1F
100
AcDbEntity
  8
0
  6
Continuous
 62
     7
370
    15
100
AcDbLine
 10
730.1026892232
 20
397.297315656
 30
0.0
 11
730.2734416294001
 21
398.1948125947
 31
0.0
  0
LINE
  5
284
330
1F
100
AcDbEntity
  8
0
  6
Continuous
 62
     7
370
    15
100
AcDbLine
 10
732.2010726052
 20
397.297315656
 30
0.0
 11
730.1026892232
 21
397.297315656
 31
0.0
  0
LINE
  5
285
330
1F
100
AcDbEntity
  8
0
  6
Continuous
 62
     7
370
    15
100
AcDbLine
 10
727.6616014855997
 20
395.3402753759
 30
0.0
 11
731.8287372905
 21
395.3402735133
 31
0.0
  0
LINE
  5
286
330
1F
100
AcDbEntity
  8
0
  6
Continuous
 62
     7
370
    15
100
AcDbLine
 10
731.9923743921
 20
396.2003741253
 30
0.0
 11
731.8287372905
 21
395.3402735133
 31
0.0
  0
LINE
  5
287
330
1F
100
AcDbEntity
  8
0
  6
Continuous
 62
     7
370
    15
100
AcDbLine
 10
728.9092459099999
 20
396.2003741253
 30
0.0
 11
731.9923743921
 21
396.2003741253
 31
0.0
  0
LINE
  5
288
330
1F
100
AcDbEntity
  8
0
  6
Continuous
 62
     7
370
    15
100
AcDbLine
 10
729.4381030219
 20
398.9801186908
 30
0.0
 11
728.9092459099999
 21
396.2003741253
 31
0.0
  0
LINE
  5
289
330
1F
100
AcDbEntity
  8
0
  6
Continuous
 62
     7
370
    15
100
AcDbLine
 10
729.4381030219
 20
398.9801186908
 30
0.0
 11
732.5212315039999
 21
398.9801186908
 31
0.0
  0
LINE
  5
28A
330
1F
100
AcDbEntity
  8
0
  6
Continuous
 62
     7
370
    15
100
AcDbLine
 10
732.6896127628999
 20
399.8651508082
 30
0.0
 11
732.5212315039999
 21
398.9801186908
 31
0.0
  0
LINE
  5
28B
330
1F
100
AcDbEntity
  8
0
  6
Continuous
 62
     7
370
    15
100
AcDbLine
 10
728.522476958
 20
399.8651508082
 30
0.0
 11
732.6896127628999
 21
399.8651508082
 31
0.0
  0
LINE
  5
28C
330
1F
100
AcDbEntity
  8
0
  6
Continuous
 62
     7
370
    15
100
AcDbLine
 10
728.522476958
 20
399.8651508082
 30
0.0
 11
727.6616014855997
 21
395.3402753759
 31
0.0
  0
LINE
  5
28D
330
1F
100
AcDbEntity
  8
0
  6
Continuous
 62
     7
370
    15
100
AcDbLine
 10
722.1654907183998
 20
395.3396048237
 30
0.0
 11
724.8305041361
 21
395.3396039192
 31
0.0
  0
ARC
  5
28E
330
1F
100
AcDbEntity
  8
0
  6
Continuous
 62
     7
370
    15
100
AcDbCircle
 10
724.8305042246999
 20
398.37474761
 30
0.0
 40
3.035143690727153
100
AcDbArc
 50
269.9999983269
 51
336.6047327906
  0
ARC
  5
28F
330
1F
100
AcDbEntity
  8
0
  6
Continuous
 62
     7
370
    15
100
AcDbCircle
 10
725.6626074885
 20
397.8282829678
 30
0.0
 40
2.061579166053074
100
AcDbArc
 50
341.3663825051
 51
91.54770829360002
  0
LINE
  5
290
330
1F
100
AcDbEntity
  8
0
  6
Continuous
 62
     7
370
    15
100
AcDbLine
 10
723.1307711767999
 20
399.8891118754
 30
0.0
 11
725.6069256358
 21
399.8891100321
 31
0.0
  0
LINE
  5
291
330
1F
100
AcDbEntity
  8
0
  6
Continuous
 62
     7
370
    15
100
AcDbLine
 10
723.1307711767999
 20
399.8891118754
 30
0.0
 11
722.1654907183998
 21
395.3396048237
 31
0.0
  0
LINE
  5
292
330
1F
100
AcDbEntity
  8
0
  6
Continuous
 62
     7
370
    15
100
AcDbLine
 10
720.4829819816
 20
395.3113186944
 30
0.0
 11
721.4379936771997
 21
395.3113186944
 31
0.0
  0
LINE
  5
293
330
1F
100
AcDbEntity
  8
0
  6
Continuous
 62
     7
370
    15
100
AcDbLine
 10
722.0459869346
 20
398.4205154972
 30
0.0
 11
721.4379936771997
 21
395.3113186944
 31
0.0
  0
ARC
  5
294
330
1F
100
AcDbEntity
  8
0
  6
Continuous
 62
     7
370
    15
100
AcDbCircle
 10
720.7629761933
 20
398.6316018253
 30
0.0
 40
1.300259204989196
100
AcDbArc
 50
350.6571552082
 51
79.2059250325
  0
LINE
  5
295
330
1F
100
AcDbEntity
  8
0
  6
Continuous
 62
     7
370
    15
100
AcDbLine
 10
718.4513911919998
 20
399.908855914
 30
0.0
 11
721.0064883913
 21
399.9088550537
 31
0.0
  0
LINE
  5
296
330
1F
100
AcDbEntity
  8
0
  6
Continuous
 62
     7
370
    15
100
AcDbLine
 10
718.4513911919998
 20
399.908855914
 30
0.0
 11
717.5156727749
 21
395.3113186944
 31
0.0
  0
LINE
  5
297
330
1F
100
AcDbEntity
  8
0
  6
Continuous
 62
     7
370
    15
100
AcDbLine
 10
717.5156727749
 20
395.3113186944
 30
0.0
 11
718.630842151
 21
395.3113186944
 31
0.0
  0
LINE
  5
298
330
1F
100
AcDbEntity
  8
0
  6
Continuous
 62
     7
370
    15
100
AcDbLine
 10
718.630842151
 20
395.3113186944
 30
0.0
 11
719.4127433316999
 21
398.9867869605
 31
0.0
  0
LINE
  5
299
330
1F
100
AcDbEntity
  8
0
  6
Continuous
 62
     7
370
    15
100
AcDbLine
 10
719.4127433316999
 20
398.9867869605
 30
0.0
 11
720.4510046863
 21
398.9867867783
 31
0.0
  0
ARC
  5
29A
330
1F
100
AcDbEntity
  8
0
  6
Continuous
 62
     7
370
    15
100
AcDbCircle
 10
720.5548074858998
 20
398.46187958
 30
0.0
 40
0.535072507210608
100
AcDbArc
 50
352.3233359414
 51
101.186174024
  0
LINE
  5
29B
330
1F
100
AcDbEntity
  8
0
  6
Continuous
 62
     7
370
    15
100
AcDbLine
 10
721.0850845067
 20
398.390403226
 30
0.0
 11
720.4829819816
 21
395.3113186944
 31
0.0
  0
LINE
  5
29C
330
1F
100
AcDbEntity
  8
0
  6
Continuous
 62
     7
370
    15
100
AcDbLine
 10
715.2175933438001
 20
397.297315656
 30
0.0
 11
717.3159748630998
 21
397.297315656
 31
0.0
  0
LINE
  5
29D
330
1F
100
AcDbEntity
  8
0
  6
Continuous
 62
     7
370
    15
100
AcDbLine
 10
717.4867272691997
 20
398.1948125947
 30
0.0
 11
717.3159748630998
 21
397.297315656
 31
0.0
  0
LINE
  5
29E
330
1F
100
AcDbEntity
  8
0
  6
Continuous
 62
     7
370
    15
100
AcDbLine
 10
715.3883457499
 20
398.1948125947
 30
0.0
 11
717.4867272691997
 21
398.1948125947
 31
0.0
  0
LINE
  5
29F
330
1F
100
AcDbEntity
  8
0
  6
Continuous
 62
     7
370
    15
100
AcDbLine
 10
715.3883457499
 20
398.1948125947
 30
0.0
 11
715.2175933438001
 21
397.297315656
 31
0.0
  0
LINE
  5
2A0
330
1F
100
AcDbEntity
  8
0
  6
Continuous
 62
     7
370
    15
100
AcDbLine
 10
714.5530052798
 20
398.9801224161
 30
0.0
 11
714.0241481678999
 21
396.200375988
 31
0.0
  0
LINE
  5
2A1
330
1F
100
AcDbEntity
  8
0
  6
Continuous
 62
     7
370
    15
100
AcDbLine
 10
714.5530052798
 20
398.9801224161
 30
0.0
 11
717.636133762
 21
398.9801186908
 31
0.0
  0
LINE
  5
2A2
330
1F
100
AcDbEntity
  8
0
  6
Continuous
 62
     7
370
    15
100
AcDbLine
 10
717.8045168834
 20
399.8651508082
 30
0.0
 11
717.636133762
 21
398.9801186908
 31
0.0
  0
LINE
  5
2A3
330
1F
100
AcDbEntity
  8
0
  6
Continuous
 62
     7
370
    15
100
AcDbLine
 10
713.6373773533001
 20
399.8651508082
 30
0.0
 11
717.8045168834
 21
399.8651508082
 31
0.0
  0
LINE
  5
2A4
330
1F
100
AcDbEntity
  8
0
  6
Continuous
 62
     7
370
    15
100
AcDbLine
 10
713.6373773533001
 20
399.8651508082
 30
0.0
 11
712.7765037435
 21
395.3402753759
 31
0.0
  0
LINE
  5
2A5
330
1F
100
AcDbEntity
  8
0
  6
Continuous
 62
     7
370
    15
100
AcDbLine
 10
712.7765037435
 20
395.3402753759
 30
0.0
 11
716.9436395483998
 21
395.3402753759
 31
0.0
  0
LINE
  5
2A6
330
1F
100
AcDbEntity
  8
0
  6
Continuous
 62
     7
370
    15
100
AcDbLine
 10
717.10727665
 20
396.200375988
 30
0.0
 11
716.9436395483998
 21
395.3402753759
 31
0.0
  0
LINE
  5
2A7
330
1F
100
AcDbEntity
  8
0
  6
Continuous
 62
     7
370
    15
100
AcDbLine
 10
714.0241481678999
 20
396.200375988
 30
0.0
 11
717.10727665
 21
396.200375988
 31
0.0
  0
LINE
  5
2A8
330
1F
100
AcDbEntity
  8
0
  6
Continuous
 62
     7
370
    15
100
AcDbLine
 10
707.7022672014999
 20
394.5227194417
 30
0.0
 11
707.4591547566
 21
393.3792508979
 31
0.0
  0
LINE
  5
2A9
330
1F
100
AcDbEntity
  8
0
  6
Continuous
 62
     7
370
    15
100
AcDbLine
 10
710.5238281506
 20
393.3792490352
 30
0.0
 11
707.4591547566
 21
393.3792508979
 31
0.0
  0
LINE
  5
2AA
330
1F
100
AcDbEntity
  8
0
  6
Continuous
 62
     7
370
    15
100
AcDbLine
 10
710.7669405955
 20
394.5227194417
 30
0.0
 11
710.5238281506
 21
393.3792490352
 31
0.0
  0
LINE
  5
2AB
330
1F
100
AcDbEntity
  8
0
  6
Continuous
 62
     7
370
    15
100
AcDbLine
 10
707.7022672014999
 20
394.5227194417
 30
0.0
 11
710.7669405955
 21
394.5227194417
 31
0.0
  0
LINE
  5
2AC
330
1F
100
AcDbEntity
  8
0
  6
Continuous
 62
     7
370
    15
100
AcDbLine
 10
713.0727760809
 20
393.3085914541
 30
0.0
 11
711.7070883827997
 21
393.3085914541
 31
0.0
  0
LINE
  5
2AD
330
1F
100
AcDbEntity
  8
0
  6
Continuous
 62
     7
370
    15
100
AcDbLine
 10
711.2805575448
 20
397.3929997374
 30
0.0
 11
713.0727760809
 21
393.3085914541
 31
0.0
  0
LINE
  5
2AE
330
1F
100
AcDbEntity
  8
0
  6
Continuous
 62
     7
370
    15
100
AcDbLine
 10
711.5738224025
 20
397.3929993508
 30
0.0
 11
711.2805575448
 21
397.3929997374
 31
0.0
  0
ARC
  5
2AF
330
1F
100
AcDbEntity
  8
0
  6
Continuous
 62
     7
370
    15
100
AcDbCircle
 10
711.6758361413997
 20
398.6068712882
 30
0.0
 40
1.218151010077639
100
AcDbArc
 50
265.1961536333
 51
85.1961536333
  0
LINE
  5
2B0
330
1F
100
AcDbEntity
  8
0
  6
Continuous
 62
     7
370
    15
100
AcDbLine
 10
708.8935554343
 20
399.8207416225
 30
0.0
 11
711.7778498803999
 21
399.8207432256
 31
0.0
  0
LINE
  5
2B1
330
1F
100
AcDbEntity
  8
0
  6
Continuous
 62
     7
370
    15
100
AcDbLine
 10
708.8935554343
 20
399.8207416225
 30
0.0
 11
707.9583324807
 21
395.3589446683
 31
0.0
  0
LINE
  5
2B2
330
1F
100
AcDbEntity
  8
0
  6
Continuous
 62
     7
370
    15
100
AcDbLine
 10
707.9583324807
 20
395.3589446683
 30
0.0
 11
709.0964012162999
 21
395.3589446683
 31
0.0
  0
LINE
  5
2B3
330
1F
100
AcDbEntity
  8
0
  6
Continuous
 62
     7
370
    15
100
AcDbLine
 10
709.0964012162999
 20
395.3589446683
 30
0.0
 11
709.8621942417999
 21
398.9885527480999
 31
0.0
  0
LINE
  5
2B4
330
1F
100
AcDbEntity
  8
0
  6
Continuous
 62
     7
370
    15
100
AcDbLine
 10
709.8621942417999
 20
398.9885527480999
 30
0.0
 11
711.3037514883
 21
398.9885515771
 31
0.0
  0
ARC
  5
2B5
330
1F
100
AcDbEntity
  8
0
  6
Continuous
 62
     7
370
    15
100
AcDbCircle
 10
711.2604660881999
 20
398.5330011566
 30
0.0
 40
0.4576022415114436
100
AcDbArc
 50
258.8102544673
 51
84.5721765961
  0
LINE
  5
2B6
330
1F
100
AcDbEntity
  8
0
  6
Continuous
 62
     7
370
    15
100
AcDbLine
 10
711.1716643544
 20
398.0840979783
 30
0.0
 11
710.3580080435
 21
398.0840980019999
 31
0.0
  0
ARC
  5
2B7
330
1F
100
AcDbEntity
  8
0
  6
Continuous
 62
     7
370
    15
100
AcDbCircle
 10
710.3580096844998
 20
397.596598002
 30
0.0
 40
0.4875000000000874
100
AcDbArc
 50
90.00019286879998
 51
202.026600416
  0
ARC
  5
2B8
330
1F
100
AcDbEntity
  8
0
  6
Continuous
 62
     7
370
    15
100
AcDbCircle
 10
710.5778280551
 20
397.685530155
 30
0.0
 40
0.7246266410211585
100
AcDbArc
 50
202.0266759968
 51
203.6916228818
  0
LINE
  5
2B9
330
1F
100
AcDbEntity
  8
0
  6
Continuous
 62
     7
370
    15
100
AcDbLine
 10
709.9142719678999
 20
397.3943651021
 30
0.0
 11
711.7070883827997
 21
393.3085914541
 31
0.0
  0
ARC
  5
2BA
330
1F
100
AcDbEntity
  8
0
  6
Continuous
 62
     7
370
    15
100
AcDbCircle
 10
694.5922702503
 20
395.6167252941
 30
0.0
 40
3.999999999999944
100
AcDbArc
 50
290.3641331332
 51
89.99999832689999
  0
ARC
  5
2BB
330
1F
100
AcDbEntity
  8
0
  6
Continuous
 62
     7
370
    15
100
AcDbCircle
 10
746.5922702502996
 20
395.6167237756
 30
0.0
 40
4.000000000000055
100
AcDbArc
 50
89.99999832689999
 51
249.6358635205
  0
LINE
  5
2BC
330
1F
100
AcDbEntity
  8
0
  6
Continuous
 62
     7
370
    15
100
AcDbLine
 10
693.7469274121
 20
399.6167260993
 30
0.0
 11
694.5922703671
 21
399.6167252941
 31
0.0
  0
LINE
  5
2BD
330
1F
100
AcDbEntity
  8
0
  6
Continuous
 62
     7
370
    15
100
AcDbLine
 10
746.5922703671
 20
399.6167237755999
 30
0.0
 11
747.4376133027
 21
399.6167223741
 31
0.0
  0
LINE
  5
2BE
330
1F
100
AcDbEntity
  8
0
  6
Continuous
 62
     7
370
    15
100
AcDbLine
 10
723.4589562135
 20
396.1163725544
 30
0.0
 11
724.7914895564999
 21
396.1163722288
 31
0.0
  0
LINE
  5
2BF
330
1F
100
AcDbEntity
  8
0
  6
Continuous
 62
     7
370
    15
100
AcDbLine
 10
724.0649883019
 20
398.9726904619999
 30
0.0
 11
723.4589562135
 21
396.1163725544
 31
0.0
  0
LINE
  5
2C0
330
1F
100
AcDbEntity
  8
0
  6
Continuous
 62
     7
370
    15
100
AcDbLine
 10
724.0649883019
 20
398.9726904619999
 30
0.0
 11
725.7121491502
 21
398.9726888245
 31
0.0
  0
ARC
  5
2C1
330
1F
100
AcDbEntity
  8
0
  6
Continuous
 62
     7
370
    15
100
AcDbCircle
 10
725.4970895666
 20
397.8374084462999
 30
0.0
 40
1.155470536960804
100
AcDbArc
 50
338.4914351935
 51
79.27339020169999
  0
ARC
  5
2C2
330
1F
100
AcDbEntity
  8
0
  6
Continuous
 62
     7
370
    15
100
AcDbCircle
 10
724.7914896111
 20
397.9869648697
 30
0.0
 40
1.8705926408403
100
AcDbArc
 50
269.9999983269
 51
342.1560151441
  0
LINE
  5
2C3
330
1F
100
AcDbEntity
  8
0
  6
Continuous
 62
     7
370
    15
100
AcDbLine
 10
692.0922704146001
 20
401.2426038083
 30
0.0
 11
692.0922704332999
 21
401.8816151919
 31
0.0
  0
ARC
  5
2C4
330
1F
100
AcDbEntity
  8
0
  6
Continuous
 62
     7
370
    15
100
AcDbCircle
 10
728.1434706881
 20
387.017532978
 30
0.0
 40
25.00000000000007
100
AcDbArc
 50
30.2628451782
 51
31.7931654114
  0
LINE
  5
2C5
330
1F
100
AcDbEntity
  8
0
  6
Continuous
 62
     7
370
    15
100
AcDbLine
 10
749.7365342400999
 20
399.6167236838
 30
0.0
 11
748.4692984576
 21
399.6167223741
 31
0.0
  0
ARC
  5
2C6
330
1F
100
AcDbEntity
  8
0
  6
Continuous
 62
     7
370
    15
100
AcDbCircle
 10
713.0410693103999
 20
387.0175334191001
 30
0.0
 40
25.00000000000012
100
AcDbArc
 50
148.2068312423
 51
149.7371514755
  0
LINE
  5
2C7
330
1F
100
AcDbEntity
  8
0
  6
Continuous
 62
     7
370
    15
100
AcDbLine
 10
692.7152417916
 20
399.6167260993
 30
0.0
 11
691.4480064941997
 21
399.6167253858999
 31
0.0
  0
ARC
  5
2C8
330
1F
100
AcDbEntity
  8
0
  6
Continuous
 62
     7
370
    15
100
AcDbCircle
 10
695.0922711410001
 20
422.6167281656
 30
0.0
 40
2.999998470231106
100
AcDbArc
 50
89.9999969659
 51
180.0000741819
  0
ARC
  5
2C9
330
1F
100
AcDbEntity
  8
0
  6
Continuous
 62
     7
370
    15
100
AcDbCircle
 10
746.0922738975999
 20
422.6167257373
 30
0.0
 40
2.999997173223285
100
AcDbArc
 50
359.9999721949
 51
90.0000500388
  0
LINE
  5
2CA
330
1F
100
AcDbEntity
  8
0
  6
Continuous
 62
     7
370
    15
100
AcDbLine
 10
746.0922711263997
 20
425.6167237905
 30
0.0
 11
746.0922711875999
 21
424.0303683157
 31
0.0
  0
LINE
  5
2CB
330
1F
100
AcDbEntity
  8
0
  6
Continuous
 62
     7
370
    15
100
AcDbLine
 10
695.0922712999
 20
425.6167266358
 30
0.0
 11
746.0922711263997
 21
425.6167237905
 31
0.0
  0
LINE
  5
2CC
330
1F
100
AcDbEntity
  8
0
  6
Continuous
 62
     7
370
    15
100
AcDbLine
 10
748.8076017225999
 20
368.1167237109
 30
0.0
 11
692.3769371719997
 21
368.1167253588
 31
0.0
  0
ARC
  5
2CD
330
1F
100
AcDbEntity
  8
0
  6
Continuous
 62
     7
370
    15
100
AcDbCircle
 10
748.8076017837999
 20
370.1167237109
 30
0.0
 40
2.000000000000058
100
AcDbArc
 50
269.9999982458
 51
333.9538279280001
  0
ARC
  5
2CE
330
1F
100
AcDbEntity
  8
0
  6
Continuous
 62
     7
370
    15
100
AcDbCircle
 10
692.3769372275999
 20
370.1167253588
 30
0.0
 40
2.000000000000095
100
AcDbArc
 50
206.0461687257
 51
269.9999984079
  0
CIRCLE
  5
2CF
330
1F
100
AcDbEntity
  8
0
  6
Continuous
 62
     7
370
    15
100
AcDbCircle
 10
746.5922702502996
 20
395.6167237756
 30
0.0
 40
2.25
  0
ARC
  5
2D0
330
1F
100
AcDbEntity
  8
0
  6
Continuous
 62
     7
370
    15
100
AcDbCircle
 10
728.1434706881
 20
387.017532978
 30
0.0
 40
25.00000000000018
100
AcDbArc
 50
10.6009486287
 51
30.2628451782
  0
CIRCLE
  5
2D1
330
1F
100
AcDbEntity
  8
0
  6
Continuous
 62
     7
370
    15
100
AcDbCircle
 10
745.5922696371001
 20
374.6167238048
 30
0.0
 40
2.249999999999884
  0
CIRCLE
  5
2D2
330
1F
100
AcDbEntity
  8
0
  6
Continuous
 62
     7
370
    15
100
AcDbCircle
 10
694.5922702503
 20
395.6167252941
 30
0.0
 40
2.25
  0
ARC
  5
2D3
330
1F
100
AcDbEntity
  8
0
  6
Continuous
 62
     7
370
    15
100
AcDbCircle
 10
713.0410693103999
 20
387.0175334191001
 30
0.0
 40
25.00000000000014
100
AcDbArc
 50
149.7371514755
 51
169.399048025
  0
CIRCLE
  5
2D4
330
1F
100
AcDbEntity
  8
0
  6
Continuous
 62
     7
370
    15
100
AcDbCircle
 10
695.5922696371001
 20
374.6167252649
 30
0.0
 40
2.249999999999884
  0
ARC
  5
2D5
330
1F
100
AcDbEntity
  8
0
  6
Continuous
 62
     7
370
    15
100
AcDbCircle
 10
782.0922696371001
 20
414.6167252648996
 30
0.0
 40
3.0
100
AcDbArc
 50
270.0
 51
0.0
  0
LINE
  5
2D6
330
1F
100
AcDbEntity
  8
0
  6
Continuous
 62
     7
370
    15
100
AcDbLine
 10
785.0922711508998
 20
419.6167256523
 30
0.0
 11
785.0922696371001
 21
414.6167252648996
 31
0.0
  0
LINE
  5
2D7
330
1F
100
AcDbEntity
  8
0
  6
Continuous
 62
     7
370
    15
100
AcDbLine
 10
785.0922711508998
 20
419.6167256523
 30
0.0
 11
817.0922726708001
 21
419.6167256523
 31
0.0
  0
LINE
  5
2D8
330
1F
100
AcDbEntity
  8
0
  6
Continuous
 62
     7
370
    15
100
AcDbLine
 10
817.0922726708001
 20
412.1167253542997
 30
0.0
 11
817.0922726708001
 21
419.6167256523
 31
0.0
  0
LINE
  5
2D9
330
1F
100
AcDbEntity
  8
0
  6
Continuous
 62
     7
370
    15
100
AcDbLine
 10
825.0922665314998
 20
412.1167253542997
 30
0.0
 11
817.0922726708001
 21
412.1167253542997
 31
0.0
  0
LINE
  5
2DA
330
1F
100
AcDbEntity
  8
0
  6
Continuous
 62
     7
370
    15
100
AcDbLine
 10
825.0922665314998
 20
412.1167253542997
 30
0.0
 11
825.0922665314998
 21
387.1167249818
 31
0.0
  0
LINE
  5
2DB
330
1F
100
AcDbEntity
  8
0
  6
Continuous
 62
     7
370
    15
100
AcDbLine
 10
825.0922665314998
 20
387.1167249818
 30
0.0
 11
817.0922726708001
 21
387.1167249818
 31
0.0
  0
LINE
  5
2DC
330
1F
100
AcDbEntity
  8
0
  6
Continuous
 62
     7
370
    15
100
AcDbLine
 10
817.0922726708001
 20
387.616725995
 30
0.0
 11
817.0922726708001
 21
387.1167249818
 31
0.0
  0
LINE
  5
2DD
330
1F
100
AcDbEntity
  8
0
  6
Continuous
 62
     7
370
    15
100
AcDbLine
 10
817.0922726708001
 20
387.616725995
 30
0.0
 11
812.0922696371001
 21
387.6167252649
 31
0.0
  0
ARC
  5
2DE
330
1F
100
AcDbEntity
  8
0
  6
Continuous
 62
     7
370
    15
100
AcDbCircle
 10
812.0922696371001
 20
384.6167252649
 30
0.0
 40
3.0
100
AcDbArc
 50
90.0
 51
180.0
  0
LINE
  5
2DF
330
1F
100
AcDbEntity
  8
0
  6
Continuous
 62
     7
370
    15
100
AcDbLine
 10
809.0922713594999
 20
379.6167256151
 30
0.0
 11
809.0922696371
 21
384.6167252649
 31
0.0
  0
LINE
  5
2E0
330
1F
100
AcDbEntity
  8
0
  6
Continuous
 62
     7
370
    15
100
AcDbLine
 10
809.0922713594999
 20
379.6167256151
 30
0.0
 11
777.0922698396
 21
379.6167256151
 31
0.0
  0
LINE
  5
2E1
330
1F
100
AcDbEntity
  8
0
  6
Continuous
 62
     7
370
    15
100
AcDbLine
 10
777.0922698396
 20
411.616724341
 30
0.0
 11
777.0922698396
 21
379.6167256151
 31
0.0
  0
LINE
  5
2E2
330
1F
100
AcDbEntity
  8
0
  6
Continuous
 62
     7
370
    15
100
AcDbLine
 10
777.0922698396
 20
411.616724341
 30
0.0
 11
782.0922696371001
 21
411.6167252648999
 31
0.0
  0
LINE
  5
2E3
330
1F
100
AcDbEntity
  8
0
  6
Continuous
 62
     7
370
    15
100
AcDbLine
 10
830.0922696371001
 20
402.8667252648999
 30
0.0
 11
830.0922696371001
 21
396.3667252649
 31
0.0
  0
LINE
  5
2E4
330
1F
100
AcDbEntity
  8
0
  6
Continuous
 62
     7
370
    15
100
AcDbLine
 10
832.0922732669
 20
409.6167240131999
 30
0.0
 11
825.0922665314998
 21
409.6167240131999
 31
0.0
  0
LINE
  5
2E5
330
1F
100
AcDbEntity
  8
0
  6
Continuous
 62
     7
370
    15
100
AcDbLine
 10
832.0922732669
 20
409.6167240131999
 30
0.0
 11
832.0922732669
 21
389.6167244602
 31
0.0
  0
LINE
  5
2E6
330
1F
100
AcDbEntity
  8
0
  6
Continuous
 62
     7
370
    15
100
AcDbLine
 10
832.0922732669
 20
389.6167244602
 30
0.0
 11
825.0922665314998
 21
389.6167244602
 31
0.0
  0
LINE
  5
2E7
330
1F
100
AcDbEntity
  8
0
  6
Continuous
 62
     7
370
    15
100
AcDbLine
 10
836.0922696371002
 20
402.6167252648999
 30
0.0
 11
836.0922696371002
 21
396.6167252649
 31
0.0
  0
CIRCLE
  5
2E8
330
1F
100
AcDbEntity
  8
0
  6
Continuous
 62
     7
370
    15
100
AcDbCircle
 10
813.3557256043996
 20
383.3532692976
 30
0.0
 40
2.25
  0
LINE
  5
2E9
330
1F
100
AcDbEntity
  8
0
  6
Continuous
 62
     7
370
    15
100
AcDbLine
 10
817.0922726708001
 20
379.6167256151
 30
0.0
 11
809.0922713594999
 21
379.6167256151
 31
0.0
  0
LINE
  5
2EA
330
1F
100
AcDbEntity
  8
0
  6
Continuous
 62
     7
370
    15
100
AcDbLine
 10
817.0922726708001
 20
379.6167256151
 30
0.0
 11
817.0922726708001
 21
387.1167249818
 31
0.0
  0
CIRCLE
  5
2EB
330
1F
100
AcDbEntity
  8
0
  6
Continuous
 62
     7
370
    15
100
AcDbCircle
 10
780.8288136697998
 20
415.8801812322
 30
0.0
 40
2.250000000000055
  0
LINE
  5
2EC
330
1F
100
AcDbEntity
  8
0
  6
Continuous
 62
     7
370
    15
100
AcDbLine
 10
777.0922698396
 20
419.6167256523
 30
0.0
 11
777.0922698396
 21
411.616724341
 31
0.0
  0
LINE
  5
2ED
330
1F
100
AcDbEntity
  8
0
  6
Continuous
 62
     7
370
    15
100
AcDbLine
 10
777.0922698396
 20
419.6167256523
 30
0.0
 11
785.0922711508998
 21
419.6167256523
 31
0.0
  0
LINE
  5
2EE
330
1F
100
AcDbEntity
  8
0
  6
Continuous
 62
     7
370
    15
100
AcDbLine
 10
682.5922683196997
 20
415.6167249966999
 30
0.0
 11
680.5922696370998
 21
415.6167252648999
 31
0.0
  0
LINE
  5
2EF
330
1F
100
AcDbEntity
  8
0
  6
Continuous
 62
     7
370
    15
100
AcDbLine
 10
680.5922696370998
 20
415.6167252648999
 30
0.0
 11
680.5922696370998
 21
416.1167252648999
 31
0.0
  0
LINE
  5
2F0
330
1F
100
AcDbEntity
  8
0
  6
Continuous
 62
     7
370
    15
100
AcDbLine
 10
680.5922696370998
 20
425.1167252649
 30
0.0
 11
680.5922696370998
 21
416.1167252648999
 31
0.0
  0
LINE
  5
2F1
330
1F
100
AcDbEntity
  8
0
  6
Continuous
 62
     7
370
    15
100
AcDbLine
 10
680.5922696370998
 20
425.6167252648999
 30
0.0
 11
682.5922683196997
 21
425.6167266358
 31
0.0
  0
LINE
  5
2F2
330
1F
100
AcDbEntity
  8
0
  6
Continuous
 62
     7
370
    15
100
AcDbLine
 10
680.5922696370998
 20
425.1167252649
 30
0.0
 11
680.5922696370998
 21
425.6167252648999
 31
0.0
  0
LINE
  5
2F3
330
1F
100
AcDbEntity
  8
0
  6
Continuous
 62
     7
370
    15
100
AcDbLine
 10
676.0922700482
 20
395.6167254437001
 30
0.0
 11
676.0922700482
 21
415.6167249966999
 31
0.0
  0
LINE
  5
2F4
330
1F
100
AcDbEntity
  8
0
  6
Continuous
 62
     7
370
    15
100
AcDbLine
 10
676.0922700482
 20
395.6167254437001
 30
0.0
 11
674.0922659950999
 21
395.6167254437001
 31
0.0
  0
LINE
  5
2F5
330
1F
100
AcDbEntity
  8
0
  6
Continuous
 62
     7
370
    15
100
AcDbLine
 10
674.0922659950999
 20
395.6167254437001
 30
0.0
 11
674.0922659950999
 21
417.6167253244998
 31
0.0
  0
LINE
  5
2F6
330
1F
100
AcDbEntity
  8
0
  6
Continuous
 62
     7
370
    15
100
AcDbLine
 10
674.0922659950999
 20
417.6167253244998
 30
0.0
 11
680.5922717170997
 21
417.6167253244998
 31
0.0
  0
LINE
  5
2F7
330
1F
100
AcDbEntity
  8
0
  6
Continuous
 62
     7
370
    15
100
AcDbLine
 10
676.0922700482
 20
415.6167249966999
 30
0.0
 11
680.5922696370998
 21
415.6167252648999
 31
0.0
  0
LINE
  5
2F8
330
1F
100
AcDbEntity
  8
0
  6
Continuous
 62
     7
370
    15
100
AcDbLine
 10
682.5922696371
 20
410.8667252649
 30
0.0
 11
682.5922683196997
 21
427.6167269635998
 31
0.0
  0
LINE
  5
2F9
330
1F
100
AcDbEntity
  8
0
  6
Continuous
 62
     7
370
    15
100
AcDbLine
 10
682.5922683196997
 20
427.6167269635998
 30
0.0
 11
690.592269631
 21
427.6167269635998
 31
0.0
  0
LINE
  5
2FA
330
1F
100
AcDbEntity
  8
0
  6
Continuous
 62
     7
370
    15
100
AcDbLine
 10
690.592269631
 20
427.6167269635998
 30
0.0
 11
690.5922696371001
 21
411.1167252648999
 31
0.0
  0
ARC
  5
2FB
330
1F
100
AcDbEntity
  8
0
  6
Continuous
 62
     7
370
    15
100
AcDbCircle
 10
692.5922696371001
 20
411.1167252648999
 30
0.0
 40
2.000000000000014
100
AcDbArc
 50
180.0
 51
255.5225176772999
  0
ARC
  5
2FC
330
1F
100
AcDbEntity
  8
0
  6
Continuous
 62
     7
370
    15
100
AcDbCircle
 10
748.5922696371001
 20
411.1167252648999
 30
0.0
 40
2.000000000000114
100
AcDbArc
 50
284.4775420491
 51
0.0
  0
LINE
  5
2FD
330
1F
100
AcDbEntity
  8
0
  6
Continuous
 62
     7
370
    15
100
AcDbLine
 10
750.5922696371001
 20
411.1167252648999
 30
0.0
 11
750.5922696869
 21
427.6167269635998
 31
0.0
  0
LINE
  5
2FE
330
1F
100
AcDbEntity
  8
0
  6
Continuous
 62
     7
370
    15
100
AcDbLine
 10
750.5922696869
 20
427.6167269635998
 30
0.0
 11
758.5922696012
 21
427.6167269635998
 31
0.0
  0
LINE
  5
2FF
330
1F
100
AcDbEntity
  8
0
  6
Continuous
 62
     7
370
    15
100
AcDbLine
 10
758.5922696012
 20
427.6167269635998
 30
0.0
 11
758.5922696371
 21
410.8667252649
 31
0.0
  0
ARC
  5
300
330
1F
100
AcDbEntity
  8
0
  6
Continuous
 62
     7
370
    15
100
AcDbCircle
 10
758.5922696371
 20
410.6167252648999
 30
0.0
 40
0.25
100
AcDbArc
 50
90.0
 51
270.0
  0
LINE
  5
301
330
1F
100
AcDbEntity
  8
0
  6
Continuous
 62
     7
370
    15
100
AcDbLine
 10
758.5922696371
 20
410.3667252649
 30
0.0
 11
758.5922696371
 21
409.7107113522
 31
0.0
  0
ARC
  5
302
330
1F
100
AcDbEntity
  8
0
  6
Continuous
 62
     7
370
    15
100
AcDbCircle
 10
750.5922696371001
 20
409.7107113522
 30
0.0
 40
8.000000000000023
100
AcDbArc
 50
259.1930829242
 51
0.0
  0
ARC
  5
303
330
1F
100
AcDbEntity
  8
0
  6
Continuous
 62
     7
370
    15
100
AcDbCircle
 10
690.5922696371001
 20
409.7107113522
 30
0.0
 40
8.00000000000003
100
AcDbArc
 50
180.0
 51
280.8069286739
  0
LINE
  5
304
330
1F
100
AcDbEntity
  8
0
  6
Continuous
 62
     7
370
    15
100
AcDbLine
 10
682.5922696371
 20
409.7107113522
 30
0.0
 11
682.5922696371
 21
410.3667252649
 31
0.0
  0
ARC
  5
305
330
1F
100
AcDbEntity
  8
0
  6
Continuous
 62
     7
370
    15
100
AcDbCircle
 10
682.5922696371
 20
410.6167252648999
 30
0.0
 40
0.25
100
AcDbArc
 50
270.0
 51
90.0
  0
LINE
  5
306
330
1F
100
AcDbEntity
  8
0
  6
Continuous
 62
     7
370
    15
100
AcDbLine
 10
668.2922721225
 20
387.616725995
 30
0.0
 11
668.2922696380999
 21
390.2167252649
 31
0.0
  0
LINE
  5
307
330
1F
100
AcDbEntity
  8
0
  6
Continuous
 62
     7
370
    15
100
AcDbLine
 10
668.2922696380999
 20
390.2167252649
 30
0.0
 11
669.2922696380999
 21
390.2167252649
 31
0.0
  0
LINE
  5
308
330
1F
100
AcDbEntity
  8
0
  6
Continuous
 62
     7
370
    15
100
AcDbLine
 10
680.8922696380999
 20
390.2167252649
 30
0.0
 11
669.2922696380999
 21
390.2167252649
 31
0.0
  0
LINE
  5
309
330
1F
100
AcDbEntity
  8
0
  6
Continuous
 62
     7
370
    15
100
AcDbLine
 10
681.8922696380999
 20
390.2167252649
 30
0.0
 11
681.8922713713996
 21
387.616725995
 31
0.0
  0
LINE
  5
30A
330
1F
100
AcDbEntity
  8
0
  6
Continuous
 62
     7
370
    15
100
AcDbLine
 10
680.8922696380999
 20
390.2167252649
 30
0.0
 11
681.8922696380999
 21
390.2167252649
 31
0.0
  0
LINE
  5
30B
330
1F
100
AcDbEntity
  8
0
  6
Continuous
 62
     7
370
    15
100
AcDbLine
 10
681.8922713713996
 20
402.6167247283996
 30
0.0
 11
681.3922703582
 21
403.1167257417
 31
0.0
  0
LINE
  5
30C
330
1F
100
AcDbEntity
  8
0
  6
Continuous
 62
     7
370
    15
100
AcDbLine
 10
668.7922731357
 20
403.1167257417
 30
0.0
 11
668.2922721225
 21
402.6167247283996
 31
0.0
  0
LINE
  5
30D
330
1F
100
AcDbEntity
  8
0
  6
Continuous
 62
     7
370
    15
100
AcDbLine
 10
672.0922693926
 20
403.1167257417
 30
0.0
 11
668.7922731357
 21
403.1167257417
 31
0.0
  0
LINE
  5
30E
330
1F
100
AcDbEntity
  8
0
  6
Continuous
 62
     7
370
    15
100
AcDbLine
 10
672.5922704058
 20
402.6167247283996
 30
0.0
 11
672.0922693926
 21
403.1167257417
 31
0.0
  0
LINE
  5
30F
330
1F
100
AcDbEntity
  8
0
  6
Continuous
 62
     7
370
    15
100
AcDbLine
 10
672.5922704058
 20
402.6167247283996
 30
0.0
 11
672.5922704058
 21
393.8167247761
 31
0.0
  0
LINE
  5
310
330
1F
100
AcDbEntity
  8
0
  6
Continuous
 62
     7
370
    15
100
AcDbLine
 10
677.592273088
 20
393.8167247761
 30
0.0
 11
672.5922704058
 21
393.8167247761
 31
0.0
  0
LINE
  5
311
330
1F
100
AcDbEntity
  8
0
  6
Continuous
 62
     7
370
    15
100
AcDbLine
 10
677.592273088
 20
402.6167247283996
 30
0.0
 11
677.592273088
 21
393.8167247761
 31
0.0
  0
LINE
  5
312
330
1F
100
AcDbEntity
  8
0
  6
Continuous
 62
     7
370
    15
100
AcDbLine
 10
678.0922666507
 20
403.1167257417
 30
0.0
 11
677.592273088
 21
402.6167247283996
 31
0.0
  0
LINE
  5
313
330
1F
100
AcDbEntity
  8
0
  6
Continuous
 62
     7
370
    15
100
AcDbLine
 10
678.0922666507
 20
403.1167257417
 30
0.0
 11
681.3922703582
 21
403.1167257417
 31
0.0
  0
LINE
  5
314
330
1F
100
AcDbEntity
  8
0
  6
Continuous
 62
     7
370
    15
100
AcDbLine
 10
668.2922721225
 20
402.6167247283996
 30
0.0
 11
668.2922696380999
 21
390.2167252649
 31
0.0
  0
LINE
  5
315
330
1F
100
AcDbEntity
  8
0
  6
Continuous
 62
     7
370
    15
100
AcDbLine
 10
681.8922713713996
 20
402.6167247283996
 30
0.0
 11
681.8922696380999
 21
390.2167252649
 31
0.0
  0
DIMENSION
  5
316
330
1F
100
AcDbEntity
  8
0
  6
Continuous
 62
     7
370
     0
100
AcDbDimension
  2
*D13
 10
753.0922688605
 20
348.0227234994
 30
0.0
 11
720.2629139063997
 21
348.0227244581
 31
0.0
 70
   160
 71
     5
 42
-1.0
  3
SLDDIMSTYLE0
100
AcDbAlignedDimension
 13
688.0922697539
 23
378.6167254843
 33
0.0
 14
753.0922697539
 24
378.6167235861
 34
0.0
 50
-0.0000016731
100
AcDbRotatedDimension
  0
DIMENSION
  5
320
330
1F
100
AcDbEntity
  8
0
  6
Continuous
 62
     7
370
     0
100
AcDbDimension
  2
*D14
 10
668.0922685276
 20
348.0227247755999
 30
0.0
 11
678.9677031119
 21
348.0227244581
 31
0.0
 70
   160
 71
     5
 42
-1.0
  3
SLDDIMSTYLE0
100
AcDbAlignedDimension
 13
688.0922697539
 23
378.6167254843
 33
0.0
 14
668.0922696370998
 24
386.0167252649
 34
0.0
 50
-0.0000016731
100
AcDbRotatedDimension
  0
DIMENSION
  5
32A
330
1F
100
AcDbEntity
  8
0
  6
Continuous
 62
     7
370
     0
100
AcDbDimension
  2
*D15
 10
625.3644370923742
 20
367.6167252649
 30
0.0
 11
625.3644370923742
 21
396.6813610572442
 31
0.0
 70
   160
 71
     5
 42
59.99999999999993
  3
SLDDIMSTYLE0
100
AcDbAlignedDimension
 13
682.5922696371
 23
427.6167252648999
 33
0.0
 14
692.6288877074
 24
367.6167252649
 34
0.0
 50
90.0
100
AcDbRotatedDimension
  0
DIMENSION
  5
334
330
1F
100
AcDbEntity
  8
0
  6
Continuous
 62
     7
370
     0
100
AcDbDimension
  2
*D16
 10
758.5922696371
 20
450.1403904751
 30
0.0
 11
720.2629139063997
 21
450.1403904751
 31
0.0
 70
   160
 71
     5
 42
-1.0
  3
SLDDIMSTYLE0
100
AcDbAlignedDimension
 13
682.5922696371
 23
427.6167252648999
 33
0.0
 14
758.5922696371
 24
427.6167252648999
 34
0.0
100
AcDbRotatedDimension
  0
MTEXT
  5
33E
330
1F
100
AcDbEntity
  8
0
  6
Continuous
 62
     7
370
     0
100
AcDbMText
 10
634.3250121818422
 20
380.6047070915107
 30
108.7925421138
 40
8.096249999999999
 41
0.0
 71
     1
 72
     1
  1
(\U+8a3b1)
  7
SLDTEXTSTYLE1
 73
     1
 44
1.0
1001
ACAD
1000
MTEXTBEGIN
1070
    73
1070
     1
1070
    44
1040
1.0
1070
    74
1070
     0
1000
MTEXTEND
  0
LEADER
  5
33F
330
1F
100
AcDbEntity
  8
0
  6
Continuous
 62
     7
370
     0
100
AcDbLeader
  3
SLDDIMSTYLE1
 76
     3
 10
677.9092734158997
 20
386.0167252649
 30
0.0
 10
677.9034972261
 20
374.640177559
 30
0.0
 10
656.3134972261
 20
374.640177559
 30
0.0
  0
LINE
  5
340
330
1F
100
AcDbEntity
  8
0
  6
Continuous
 62
     7
370
     0
100
AcDbLine
 10
296.1647224205
 20
634.6704199936
 30
0.0
 11
296.1647224205
 21
514.7968620752
 31
0.0
  0
LINE
  5
341
330
1F
100
AcDbEntity
  8
0
  6
Continuous
 62
     7
370
     0
100
AcDbLine
 10
417.1647224205
 20
634.6704199936
 30
0.0
 11
417.1647224205
 21
504.7601392351
 31
0.0
  0
LINE
  5
342
330
1F
100
AcDbEntity
  8
0
  6
Continuous
 62
     7
370
    15
100
AcDbLine
 10
474.1756960247
 20
562.8588658037998
 30
0.0
 11
474.1756960247
 21
615.8588658038
 31
0.0
  0
ARC
  5
343
330
1F
100
AcDbEntity
  8
0
  6
Continuous
 62
     7
370
    15
100
AcDbCircle
 10
472.1756960247
 20
562.8588658037998
 30
0.0
 40
2.0
100
AcDbArc
 50
270.0
 51
0.0
  0
ARC
  5
344
330
1F
100
AcDbEntity
  8
0
  6
Continuous
 62
     7
370
    15
100
AcDbCircle
 10
472.1756960247
 20
615.8588658038
 30
0.0
 40
2.000000000000114
100
AcDbArc
 50
0.0
 51
90.0
  0
LINE
  5
345
330
1F
100
AcDbEntity
  8
0
  6
Continuous
 62
     7
370
    15
100
AcDbLine
 10
474.175707795
 20
559.0693316714
 30
0.0
 11
474.1756960247
 21
562.8588658037998
 31
0.0
  0
LINE
  5
346
330
1F
100
AcDbEntity
  8
0
  6
Continuous
 62
     7
370
    15
100
AcDbLine
 10
474.1756960247
 20
615.8588658038
 30
0.0
 11
474.175707795
 21
619.6483993496
 31
0.0
  0
ARC
  5
347
330
1F
100
AcDbEntity
  8
0
  6
Continuous
 62
     7
370
    15
100
AcDbCircle
 10
472.0048495717
 20
558.9712758209999
 30
0.0
 40
2.172305582339379
100
AcDbArc
 50
341.2370998685
 51
3.0100677722
  0
ARC
  5
348
330
1F
100
AcDbEntity
  8
0
  6
Continuous
 62
     7
370
    15
100
AcDbCircle
 10
472.1401764569
 20
619.7662615642
 30
0.0
 40
2.038840027034283
100
AcDbArc
 50
356.230260184
 51
19.3033576917
  0
LINE
  5
349
330
1F
100
AcDbEntity
  8
0
  6
Continuous
 62
     7
370
    15
100
AcDbLine
 10
458.4647224205
 20
595.3588662497
 30
0.0
 11
455.8647224205
 21
595.3588662437
 31
0.0
  0
LINE
  5
34A
330
1F
100
AcDbEntity
  8
0
  6
Continuous
 62
     7
370
    15
100
AcDbLine
 10
257.9147224205
 20
595.3588663957
 30
0.0
 11
254.4147224205
 21
595.3588663957
 31
0.0
  0
LINE
  5
34B
330
1F
100
AcDbEntity
  8
0
  6
Continuous
 62
     7
370
    15
100
AcDbLine
 10
252.4147232848
 20
595.3588652716
 30
0.0
 11
252.1647227781
 21
595.3588652716
 31
0.0
  0
LINE
  5
34C
330
1F
100
AcDbEntity
  8
0
  6
Continuous
 62
     7
370
    15
100
AcDbLine
 10
252.1647227781
 20
583.3588651672998
 30
0.0
 11
252.4147232848
 21
583.3588651672998
 31
0.0
  0
LINE
  5
34D
330
1F
100
AcDbEntity
  8
0
  6
Continuous
 62
     7
370
    15
100
AcDbLine
 10
254.4147224205
 20
583.3588663957
 30
0.0
 11
257.9147224205
 21
583.3588663957
 31
0.0
  0
LINE
  5
34E
330
1F
100
AcDbEntity
  8
0
  6
Continuous
 62
     7
370
    15
100
AcDbLine
 10
455.8647224205
 20
583.3588662437001
 30
0.0
 11
458.4647224205
 21
583.3588662497
 31
0.0
  0
LINE
  5
34F
330
1F
100
AcDbEntity
  8
0
  6
Continuous
 62
     7
370
    15
100
AcDbLine
 10
252.4147232848
 20
580.8588638262
 30
0.0
 11
252.1647227781
 21
580.8588638262
 31
0.0
  0
LINE
  5
350
330
1F
100
AcDbEntity
  8
0
  6
Continuous
 62
     7
370
    15
100
AcDbLine
 10
252.1647227781
 20
575.8588648692997
 30
0.0
 11
252.4147232848
 21
575.8588648692997
 31
0.0
  0
LINE
  5
351
330
1F
100
AcDbEntity
  8
0
  6
Continuous
 62
     7
370
    15
100
AcDbLine
 10
332.6647294539
 20
693.8588618592
 30
0.0
 11
332.6647224205
 21
698.8588649648
 31
0.0
  0
LINE
  5
352
330
1F
100
AcDbEntity
  8
0
  6
Continuous
 62
     7
370
    15
100
AcDbLine
 10
326.1647224205
 20
698.8588649648
 30
0.0
 11
326.1647237318
 21
693.8588618592
 31
0.0
  0
LINE
  5
353
330
1F
100
AcDbEntity
  8
0
  6
Continuous
 62
     7
370
    15
100
AcDbLine
 10
289.164723255
 20
700.8588685946
 30
0.0
 11
289.1647224205
 21
704.8588649647997
 31
0.0
  0
LINE
  5
354
330
1F
100
AcDbEntity
  8
0
  6
Continuous
 62
     7
370
    15
100
AcDbLine
 10
283.1647224205
 20
704.8588649647997
 30
0.0
 11
283.1647259968
 21
700.8588685946
 31
0.0
  0
LINE
  5
355
330
1F
100
AcDbEntity
  8
0
  6
Continuous
 62
     7
370
    15
100
AcDbLine
 10
252.1647227781
 20
621.8588649586997
 30
0.0
 11
242.164721139
 21
621.8588649586997
 31
0.0
  0
LINE
  5
356
330
1F
100
AcDbEntity
  8
0
  6
Continuous
 62
     7
370
    15
100
AcDbLine
 10
252.1647227781
 20
554.8588632898001
 30
0.0
 11
252.1647227781
 21
621.8588649586997
 31
0.0
  0
LINE
  5
357
330
1F
100
AcDbEntity
  8
0
  6
Continuous
 62
     7
370
    15
100
AcDbLine
 10
202.1647220331
 20
554.8588632898001
 30
0.0
 11
252.1647227781
 21
554.8588632898001
 31
0.0
  0
LINE
  5
358
330
1F
100
AcDbEntity
  8
0
  6
Continuous
 62
     7
370
    15
100
AcDbLine
 10
202.1647220331
 20
703.8588672236999
 30
0.0
 11
202.1647220331
 21
554.8588632898001
 31
0.0
  0
LINE
  5
359
330
1F
100
AcDbEntity
  8
0
  6
Continuous
 62
     7
370
    15
100
AcDbLine
 10
240.1647224205
 20
589.8588649647997
 30
0.0
 11
240.1647224205
 21
588.8588649647997
 31
0.0
  0
ARC
  5
35A
330
1F
100
AcDbEntity
  8
0
  6
Continuous
 62
     7
370
    15
100
AcDbCircle
 10
242.1647224205
 20
588.8588649647997
 30
0.0
 40
2.000000000000023
100
AcDbArc
 50
180.0
 51
0.0
  0
LINE
  5
35B
330
1F
100
AcDbEntity
  8
0
  6
Continuous
 62
     7
370
    15
100
AcDbLine
 10
244.1647224205
 20
588.8588649647997
 30
0.0
 11
244.1647224205
 21
589.8588649647997
 31
0.0
  0
ARC
  5
35C
330
1F
100
AcDbEntity
  8
0
  6
Continuous
 62
     7
370
    15
100
AcDbCircle
 10
242.1647224205
 20
589.8588649647997
 30
0.0
 40
2.000000000000023
100
AcDbArc
 50
0.0
 51
180.0
  0
LINE
  5
35D
330
1F
100
AcDbEntity
  8
0
  6
Continuous
 62
     7
370
    15
100
AcDbLine
 10
235.1647224205
 20
666.3588649648
 30
0.0
 11
235.1647224205
 21
665.3588649648
 31
0.0
  0
ARC
  5
35E
330
1F
100
AcDbEntity
  8
0
  6
Continuous
 62
     7
370
    15
100
AcDbCircle
 10
237.1647224205
 20
665.3588649648
 30
0.0
 40
2.000000000000023
100
AcDbArc
 50
180.0
 51
0.0
  0
LINE
  5
35F
330
1F
100
AcDbEntity
  8
0
  6
Continuous
 62
     7
370
    15
100
AcDbLine
 10
239.1647224205
 20
665.3588649648
 30
0.0
 11
239.1647224205
 21
666.3588649648
 31
0.0
  0
ARC
  5
360
330
1F
100
AcDbEntity
  8
0
  6
Continuous
 62
     7
370
    15
100
AcDbCircle
 10
237.1647224205
 20
666.3588649648
 30
0.0
 40
2.000000000000023
100
AcDbArc
 50
0.0
 51
180.0
  0
LINE
  5
361
330
1F
100
AcDbEntity
  8
0
  6
Continuous
 62
     7
370
    15
100
AcDbLine
 10
242.164721139
 20
703.8588672236999
 30
0.0
 11
202.1647220331
 21
703.8588672236999
 31
0.0
  0
LINE
  5
362
330
1F
100
AcDbEntity
  8
0
  6
Continuous
 62
     7
370
    15
100
AcDbLine
 10
242.164721139
 20
621.8588649586997
 30
0.0
 11
242.164721139
 21
703.8588672236999
 31
0.0
  0
CIRCLE
  5
363
330
1F
100
AcDbEntity
  8
0
  6
Continuous
 62
     7
370
    15
100
AcDbCircle
 10
242.1647224205
 20
589.3588649647997
 30
0.0
 40
1.30000000000001
  0
CIRCLE
  5
364
330
1F
100
AcDbEntity
  8
0
  6
Continuous
 62
     7
370
    15
100
AcDbCircle
 10
237.1647224205
 20
665.8588649648
 30
0.0
 40
1.30000000000001
  0
LINE
  5
365
330
1F
100
AcDbEntity
  8
0
  6
Continuous
 62
     7
370
    15
100
AcDbLine
 10
252.4147232848
 20
569.3588665977999
 30
0.0
 11
460.9147174137
 21
569.3588665977999
 31
0.0
  0
LINE
  5
366
330
1F
100
AcDbEntity
  8
0
  6
Continuous
 62
     7
370
    15
100
AcDbLine
 10
252.4147224205
 20
563.8588664541
 30
0.0
 11
252.4147232848
 21
569.3588665977999
 31
0.0
  0
LINE
  5
367
330
1F
100
AcDbEntity
  8
0
  6
Continuous
 62
     7
370
    15
100
AcDbLine
 10
460.9147224205
 20
563.8588664541
 30
0.0
 11
460.9147174137
 21
569.3588665977999
 31
0.0
  0
LINE
  5
368
330
1F
100
AcDbEntity
  8
0
  6
Continuous
 62
     7
370
    15
100
AcDbLine
 10
252.4147224205
 20
560.8588663665
 30
0.0
 11
252.4147224205
 21
563.8588664541
 31
0.0
  0
LINE
  5
369
330
1F
100
AcDbEntity
  8
0
  6
Continuous
 62
     7
370
    15
100
AcDbLine
 10
460.9147224205
 20
560.8588663665
 30
0.0
 11
460.9147224205
 21
563.8588664541
 31
0.0
  0
LINE
  5
36A
330
1F
100
AcDbEntity
  8
0
  6
Continuous
 62
     7
370
    15
100
AcDbLine
 10
252.4147232848
 20
609.3588666351
 30
0.0
 11
460.9147174137
 21
609.3588666351
 31
0.0
  0
LINE
  5
36B
330
1F
100
AcDbEntity
  8
0
  6
Continuous
 62
     7
370
    15
100
AcDbLine
 10
252.4147232848
 20
609.3588666351
 30
0.0
 11
252.4147224205
 21
614.8588664541001
 31
0.0
  0
LINE
  5
36C
330
1F
100
AcDbEntity
  8
0
  6
Continuous
 62
     7
370
    15
100
AcDbLine
 10
460.9147174137
 20
609.3588666351
 30
0.0
 11
460.9147224205
 21
614.8588664541001
 31
0.0
  0
LINE
  5
36D
330
1F
100
AcDbEntity
  8
0
  6
Continuous
 62
     7
370
    15
100
AcDbLine
 10
252.4147232848
 20
569.7588659183
 30
0.0
 11
460.9147174137
 21
569.7588659183
 31
0.0
  0
LINE
  5
36E
330
1F
100
AcDbEntity
  8
0
  6
Continuous
 62
     7
370
    15
100
AcDbLine
 10
252.4147232848
 20
569.3588665977999
 30
0.0
 11
252.4147232848
 21
569.7588659183
 31
0.0
  0
LINE
  5
36F
330
1F
100
AcDbEntity
  8
0
  6
Continuous
 62
     7
370
    15
100
AcDbLine
 10
460.9147174137
 20
569.3588665977999
 30
0.0
 11
460.9147174137
 21
569.7588659183
 31
0.0
  0
LINE
  5
370
330
1F
100
AcDbEntity
  8
0
  6
Continuous
 62
     7
370
    15
100
AcDbLine
 10
252.4147232848
 20
608.9588663832
 30
0.0
 11
460.9147174137
 21
608.9588663832
 31
0.0
  0
LINE
  5
371
330
1F
100
AcDbEntity
  8
0
  6
Continuous
 62
     7
370
    15
100
AcDbLine
 10
252.4147232848
 20
608.9588663832
 30
0.0
 11
252.4147232848
 21
609.3588666351
 31
0.0
  0
LINE
  5
372
330
1F
100
AcDbEntity
  8
0
  6
Continuous
 62
     7
370
    15
100
AcDbLine
 10
460.9147174137
 20
608.9588663832
 30
0.0
 11
460.9147174137
 21
609.3588666351
 31
0.0
  0
LINE
  5
373
330
1F
100
AcDbEntity
  8
0
  6
Continuous
 62
     7
370
    15
100
AcDbLine
 10
252.4147224205
 20
617.8588663665
 30
0.0
 11
460.9147224205
 21
617.8588663665
 31
0.0
  0
LINE
  5
374
330
1F
100
AcDbEntity
  8
0
  6
Continuous
 62
     7
370
    15
100
AcDbLine
 10
252.4147224205
 20
614.8588664541001
 30
0.0
 11
252.4147224205
 21
617.8588663665
 31
0.0
  0
LINE
  5
375
330
1F
100
AcDbEntity
  8
0
  6
Continuous
 62
     7
370
    15
100
AcDbLine
 10
460.9147224205
 20
614.8588664541001
 30
0.0
 11
460.9147224205
 21
617.8588663665
 31
0.0
  0
CIRCLE
  5
376
330
1F
100
AcDbEntity
  8
0
  6
Continuous
 62
     7
370
    15
100
AcDbCircle
 10
256.1647224205
 20
595.3588664424
 30
0.0
 40
1.750000000000006
  0
CIRCLE
  5
377
330
1F
100
AcDbEntity
  8
0
  6
Continuous
 62
     7
370
    15
100
AcDbCircle
 10
457.1647224205
 20
595.3588664424
 30
0.0
 40
1.750000000000006
  0
CIRCLE
  5
378
330
1F
100
AcDbEntity
  8
0
  6
Continuous
 62
     7
370
    15
100
AcDbCircle
 10
457.1647224205
 20
583.3588664424
 30
0.0
 40
1.750000000000006
  0
CIRCLE
  5
379
330
1F
100
AcDbEntity
  8
0
  6
Continuous
 62
     7
370
    15
100
AcDbCircle
 10
256.1647224205
 20
583.3588664424
 30
0.0
 40
1.750000000000006
  0
LINE
  5
37A
330
1F
100
AcDbEntity
  8
0
  6
Continuous
 62
     7
370
    15
100
AcDbLine
 10
252.4147232848
 20
569.7588659183
 30
0.0
 11
252.4147232848
 21
608.9588663832
 31
0.0
  0
LINE
  5
37B
330
1F
100
AcDbEntity
  8
0
  6
Continuous
 62
     7
370
    15
100
AcDbLine
 10
460.9147174137
 20
569.7588659183
 30
0.0
 11
460.9147174137
 21
608.9588663832
 31
0.0
  0
ARC
  5
37C
330
1F
100
AcDbEntity
  8
0
  6
Continuous
 62
     7
370
    15
100
AcDbCircle
 10
457.1647224205
 20
583.3588663957
 30
0.0
 40
1.750000000000006
100
AcDbArc
 50
0.0
 51
90.0
  0
ARC
  5
37D
330
1F
100
AcDbEntity
  8
0
  6
Continuous
 62
     7
370
    15
100
AcDbCircle
 10
457.1647224205
 20
583.3588663957
 30
0.0
 40
1.750000000000006
100
AcDbArc
 50
90.0
 51
180.0
  0
ARC
  5
37E
330
1F
100
AcDbEntity
  8
0
  6
Continuous
 62
     7
370
    15
100
AcDbCircle
 10
256.1647224205
 20
583.3588663957
 30
0.0
 40
1.750000000000006
100
AcDbArc
 50
0.0
 51
90.0
  0
ARC
  5
37F
330
1F
100
AcDbEntity
  8
0
  6
Continuous
 62
     7
370
    15
100
AcDbCircle
 10
256.1647224205
 20
583.3588663957
 30
0.0
 40
1.750000000000025
100
AcDbArc
 50
90.0
 51
180.0
  0
ARC
  5
380
330
1F
100
AcDbEntity
  8
0
  6
Continuous
 62
     7
370
    15
100
AcDbCircle
 10
457.1647224205
 20
595.3588663957
 30
0.0
 40
1.750000000000006
100
AcDbArc
 50
0.0
 51
90.0
  0
ARC
  5
381
330
1F
100
AcDbEntity
  8
0
  6
Continuous
 62
     7
370
    15
100
AcDbCircle
 10
457.1647224205
 20
595.3588663957
 30
0.0
 40
1.750000000000006
100
AcDbArc
 50
90.0
 51
180.0
  0
ARC
  5
382
330
1F
100
AcDbEntity
  8
0
  6
Continuous
 62
     7
370
    15
100
AcDbCircle
 10
256.1647224205
 20
595.3588663957
 30
0.0
 40
1.750000000000006
100
AcDbArc
 50
0.0
 51
90.0
  0
ARC
  5
383
330
1F
100
AcDbEntity
  8
0
  6
Continuous
 62
     7
370
    15
100
AcDbCircle
 10
256.1647224205
 20
595.3588663957
 30
0.0
 40
1.750000000000025
100
AcDbArc
 50
90.0
 51
180.0
  0
LINE
  5
384
330
1F
100
AcDbEntity
  8
0
  6
Continuous
 62
     7
370
    15
100
AcDbLine
 10
252.4147224205
 20
560.8588663665
 30
0.0
 11
460.9147224205
 21
560.8588663665
 31
0.0
  0
LINE
  5
385
330
1F
100
AcDbEntity
  8
0
  6
Continuous
 62
     7
370
    15
100
AcDbLine
 10
252.1647227781
 20
605.8588651301
 30
0.0
 11
252.4147232848
 21
605.8588651301
 31
0.0
  0
LINE
  5
386
330
1F
100
AcDbEntity
  8
0
  6
Continuous
 62
     7
370
    15
100
AcDbLine
 10
460.9147174137
 20
605.8588651301
 30
0.0
 11
461.1647290961998
 21
605.8588651301
 31
0.0
  0
LINE
  5
387
330
1F
100
AcDbEntity
  8
0
  6
Continuous
 62
     7
370
    15
100
AcDbLine
 10
252.1647227781
 20
607.8588645266001
 30
0.0
 11
252.4147232848
 21
607.8588645266001
 31
0.0
  0
LINE
  5
388
330
1F
100
AcDbEntity
  8
0
  6
Continuous
 62
     7
370
    15
100
AcDbLine
 10
460.9147174137
 20
607.8588645266001
 30
0.0
 11
461.1647290961998
 21
607.8588645266001
 31
0.0
  0
LINE
  5
389
330
1F
100
AcDbEntity
  8
0
  6
Continuous
 62
     7
370
    15
100
AcDbLine
 10
252.1647227781
 20
570.8588659124
 30
0.0
 11
252.4147232848
 21
570.8588659124
 31
0.0
  0
LINE
  5
38A
330
1F
100
AcDbEntity
  8
0
  6
Continuous
 62
     7
370
    15
100
AcDbLine
 10
460.9147174137
 20
570.8588659124
 30
0.0
 11
461.1647290961998
 21
570.8588659124
 31
0.0
  0
LINE
  5
38B
330
1F
100
AcDbEntity
  8
0
  6
Continuous
 62
     7
370
    15
100
AcDbLine
 10
252.1647227781
 20
572.8588662402
 30
0.0
 11
252.4147232848
 21
572.8588662402
 31
0.0
  0
LINE
  5
38C
330
1F
100
AcDbEntity
  8
0
  6
Continuous
 62
     7
370
    15
100
AcDbLine
 10
460.9147174137
 20
572.8588662402
 30
0.0
 11
461.1647290961998
 21
572.8588662402
 31
0.0
  0
LINE
  5
38D
330
1F
100
AcDbEntity
  8
0
  6
Continuous
 62
     7
370
    15
100
AcDbLine
 10
252.1647227781
 20
620.9125120019
 30
0.0
 11
287.1647192019
 21
620.9125120019
 31
0.0
  0
LINE
  5
38E
330
1F
100
AcDbEntity
  8
0
  6
Continuous
 62
     7
370
    15
100
AcDbLine
 10
347.164721586
 20
620.9125120019
 30
0.0
 11
461.1647224204999
 21
620.9125119952999
 31
0.0
  0
LINE
  5
38F
330
1F
100
AcDbEntity
  8
0
  6
Continuous
 62
     7
370
    15
100
AcDbLine
 10
461.1647224204999
 20
620.9125119952999
 30
0.0
 11
461.1647224204999
 21
619.0516288559997
 31
0.0
  0
LINE
  5
390
330
1F
100
AcDbEntity
  8
0
  6
Continuous
 62
     7
370
    15
100
AcDbLine
 10
252.1647227781
 20
557.8052177386
 30
0.0
 11
287.1647192019
 21
557.8052177386
 31
0.0
  0
LINE
  5
391
330
1F
100
AcDbEntity
  8
0
  6
Continuous
 62
     7
370
    15
100
AcDbLine
 10
347.164721586
 20
557.8052177386
 30
0.0
 11
461.1647224204999
 21
557.8052179343
 31
0.0
  0
LINE
  5
392
330
1F
100
AcDbEntity
  8
0
  6
Continuous
 62
     7
370
    15
100
AcDbLine
 10
461.1647224204999
 20
559.6661010735997
 30
0.0
 11
461.1647224204999
 21
557.8052179343
 31
0.0
  0
LINE
  5
393
330
1F
100
AcDbEntity
  8
0
  6
Continuous
 62
     7
370
    15
100
AcDbLine
 10
252.1647227781
 20
621.0475350323
 30
0.0
 11
287.1647192019
 21
621.0475350323
 31
0.0
  0
LINE
  5
394
330
1F
100
AcDbEntity
  8
0
  6
Continuous
 62
     7
370
    15
100
AcDbLine
 10
347.164721586
 20
621.0475350323
 30
0.0
 11
461.1647224204999
 21
621.0475350282997
 31
0.0
  0
LINE
  5
395
330
1F
100
AcDbEntity
  8
0
  6
Continuous
 62
     7
370
    15
100
AcDbLine
 10
252.1647227781
 20
557.6701983169998
 30
0.0
 11
287.1647192019
 21
557.6701983169998
 31
0.0
  0
LINE
  5
396
330
1F
100
AcDbEntity
  8
0
  6
Continuous
 62
     7
370
    15
100
AcDbLine
 10
347.164721586
 20
557.6701983169998
 30
0.0
 11
461.1647224204999
 21
557.6701949012998
 31
0.0
  0
LINE
  5
397
330
1F
100
AcDbEntity
  8
0
  6
Continuous
 62
     7
370
    15
100
AcDbLine
 10
252.1647227781
 20
621.1239255296
 30
0.0
 11
287.1647192019
 21
621.1239255296
 31
0.0
  0
LINE
  5
398
330
1F
100
AcDbEntity
  8
0
  6
Continuous
 62
     7
370
    15
100
AcDbLine
 10
347.164721586
 20
621.1239255296
 30
0.0
 11
461.1647224204999
 21
621.1239255299997
 31
0.0
  0
LINE
  5
399
330
1F
100
AcDbEntity
  8
0
  6
Continuous
 62
     7
370
    15
100
AcDbLine
 10
461.1647224204999
 20
621.1239255299997
 30
0.0
 11
461.1647224204999
 21
621.0475350282997
 31
0.0
  0
LINE
  5
39A
330
1F
100
AcDbEntity
  8
0
  6
Continuous
 62
     7
370
    15
100
AcDbLine
 10
252.1647227781
 20
557.5938075141
 30
0.0
 11
287.1647192019
 21
557.5938075141
 31
0.0
  0
LINE
  5
39B
330
1F
100
AcDbEntity
  8
0
  6
Continuous
 62
     7
370
    15
100
AcDbLine
 10
347.164721586
 20
557.5938075141
 30
0.0
 11
461.1647224204999
 21
557.5938043996
 31
0.0
  0
LINE
  5
39C
330
1F
100
AcDbEntity
  8
0
  6
Continuous
 62
     7
370
    15
100
AcDbLine
 10
461.1647224204999
 20
557.6701949012998
 30
0.0
 11
461.1647224204999
 21
557.5938043996
 31
0.0
  0
LINE
  5
39D
330
1F
100
AcDbEntity
  8
0
  6
Continuous
 62
     7
370
    15
100
AcDbLine
 10
252.1647227781
 20
621.2434760543
 30
0.0
 11
287.1647192019
 21
621.2434760543
 31
0.0
  0
LINE
  5
39E
330
1F
100
AcDbEntity
  8
0
  6
Continuous
 62
     7
370
    15
100
AcDbLine
 10
347.164721586
 20
621.2434760543
 30
0.0
 11
461.1647224204999
 21
621.2434760525
 31
0.0
  0
LINE
  5
39F
330
1F
100
AcDbEntity
  8
0
  6
Continuous
 62
     7
370
    15
100
AcDbLine
 10
252.1647227781
 20
557.4742554979
 30
0.0
 11
287.1647192019
 21
557.4742554979
 31
0.0
  0
LINE
  5
3A0
330
1F
100
AcDbEntity
  8
0
  6
Continuous
 62
     7
370
    15
100
AcDbLine
 10
347.164721586
 20
557.4742554979
 30
0.0
 11
461.1647224204999
 21
557.4742538770998
 31
0.0
  0
LINE
  5
3A1
330
1F
100
AcDbEntity
  8
0
  6
Continuous
 62
     7
370
    15
100
AcDbLine
 10
461.1647224204999
 20
621.7035457666001
 30
0.0
 11
347.164721586
 21
621.7035457608999
 31
0.0
  0
LINE
  5
3A2
330
1F
100
AcDbEntity
  8
0
  6
Continuous
 62
     7
370
    15
100
AcDbLine
 10
287.1647192019
 20
621.7035457608999
 30
0.0
 11
252.1647227781
 21
621.7035457608999
 31
0.0
  0
LINE
  5
3A3
330
1F
100
AcDbEntity
  8
0
  6
Continuous
 62
     7
370
    15
100
AcDbLine
 10
461.1647224204999
 20
621.7035457666001
 30
0.0
 11
461.1647224204999
 21
621.2434760525
 31
0.0
  0
LINE
  5
3A4
330
1F
100
AcDbEntity
  8
0
  6
Continuous
 62
     7
370
    15
100
AcDbLine
 10
252.1647227781
 20
556.8588673428997
 30
0.0
 11
287.1647192019
 21
556.8588673428997
 31
0.0
  0
LINE
  5
3A5
330
1F
100
AcDbEntity
  8
0
  6
Continuous
 62
     7
370
    15
100
AcDbLine
 10
347.164721586
 20
556.8588673428997
 30
0.0
 11
461.1647224204999
 21
556.8588653735996
 31
0.0
  0
LINE
  5
3A6
330
1F
100
AcDbEntity
  8
0
  6
Continuous
 62
     7
370
    15
100
AcDbLine
 10
461.1647224204999
 20
557.4742538770998
 30
0.0
 11
461.1647224204999
 21
556.8588653735996
 31
0.0
  0
LINE
  5
3A7
330
1F
100
AcDbEntity
  8
0
  6
Continuous
 62
     7
370
    15
100
AcDbLine
 10
252.1647227781
 20
621.8588649586997
 30
0.0
 11
287.1647192019
 21
621.8588649586997
 31
0.0
  0
LINE
  5
3A8
330
1F
100
AcDbEntity
  8
0
  6
Continuous
 62
     7
370
    15
100
AcDbLine
 10
347.164721586
 20
621.8588649586997
 30
0.0
 11
461.1647224204999
 21
621.8588653736
 31
0.0
  0
LINE
  5
3A9
330
1F
100
AcDbEntity
  8
0
  6
Continuous
 62
     7
370
    15
100
AcDbLine
 10
460.9147174137
 20
601.3588643923999
 30
0.0
 11
461.1647290961998
 21
601.3588643923999
 31
0.0
  0
LINE
  5
3AA
330
1F
100
AcDbEntity
  8
0
  6
Continuous
 62
     7
370
    15
100
AcDbLine
 10
252.4147232848
 20
604.3588648842
 30
0.0
 11
252.1647227781
 21
604.3588648842
 31
0.0
  0
LINE
  5
3BA
330
1F
100
AcDbEntity
  8
0
  6
Continuous
 62
     7
370
    15
100
AcDbLine
 10
461.1647290961998
 20
589.3588661508
 30
0.0
 11
461.1647224204999
 21
563.8588664541
 31
0.0
  0
LINE
  5
3BB
330
1F
100
AcDbEntity
  8
0
  6
Continuous
 62
     7
370
    15
100
AcDbLine
 10
461.1647224204999
 20
614.8588664541001
 30
0.0
 11
461.1647290961998
 21
589.3588661508
 31
0.0
  0
LINE
  5
3BC
330
1F
100
AcDbEntity
  8
0
  6
Continuous
 62
     7
370
    15
100
AcDbLine
 10
470.0567921518
 20
614.8588664541001
 30
0.0
 11
472.0135492156
 21
614.8588665152999
 31
0.0
  0
LINE
  5
3BD
330
1F
100
AcDbEntity
  8
0
  6
Continuous
 62
     7
370
    15
100
AcDbLine
 10
470.2627490442998
 20
560.8588663665
 30
0.0
 11
461.1647224204999
 21
560.8588663665
 31
0.0
  0
LINE
  5
3BE
330
1F
100
AcDbEntity
  8
0
  6
Continuous
 62
     7
370
    15
100
AcDbLine
 10
461.1647224204999
 20
563.8588664541
 30
0.0
 11
461.1647224204999
 21
560.8588663665
 31
0.0
  0
LINE
  5
3BF
330
1F
100
AcDbEntity
  8
0
  6
Continuous
 62
     7
370
    15
100
AcDbLine
 10
470.2627490442998
 20
617.8588663665
 30
0.0
 11
461.1647224204999
 21
617.8588663665
 31
0.0
  0
LINE
  5
3C0
330
1F
100
AcDbEntity
  8
0
  6
Continuous
 62
     7
370
    15
100
AcDbLine
 10
461.1647224204999
 20
617.8588663665
 30
0.0
 11
461.1647224204999
 21
614.8588664541001
 31
0.0
  0
LINE
  5
3C1
330
1F
100
AcDbEntity
  8
0
  6
Continuous
 62
     7
370
    15
100
AcDbLine
 10
460.9147174137
 20
579.3588682369
 30
0.0
 11
461.1647290961998
 21
579.3588682369
 31
0.0
  0
LINE
  5
3C2
330
1F
100
AcDbEntity
  8
0
  6
Continuous
 62
     7
370
    15
100
AcDbLine
 10
461.1647290961998
 20
579.3588645116999
 30
0.0
 11
460.9147174137
 21
579.3588645116999
 31
0.0
  0
LINE
  5
3C3
330
1F
100
AcDbEntity
  8
0
  6
Continuous
 62
     7
370
    15
100
AcDbLine
 10
460.9147174137
 20
599.3588659273
 30
0.0
 11
461.1647290961998
 21
599.3588659273
 31
0.0
  0
CIRCLE
  5
3C4
330
1F
100
AcDbEntity
  8
0
  6
Continuous
 62
     7
370
    15
100
AcDbCircle
 10
457.1647224205
 20
595.3588663957
 30
0.0
 40
1.30000000000001
  0
CIRCLE
  5
3C5
330
1F
100
AcDbEntity
  8
0
  6
Continuous
 62
     7
370
    15
100
AcDbCircle
 10
457.1647224205
 20
583.3588663957
 30
0.0
 40
1.299999999999955
  0
ARC
  5
3C6
330
1F
100
AcDbEntity
  8
0
  6
Continuous
 62
     7
370
    15
100
AcDbCircle
 10
457.1647224205
 20
583.3588662497
 30
0.0
 40
1.30000000000001
100
AcDbArc
 50
0.0
 51
180.000000266
  0
ARC
  5
3C7
330
1F
100
AcDbEntity
  8
0
  6
Continuous
 62
     7
370
    15
100
AcDbCircle
 10
457.1647224205
 20
595.3588662497
 30
0.0
 40
1.30000000000001
100
AcDbArc
 50
0.0
 51
180.000000266
  0
LWPOLYLINE
  5
3C8
330
1F
100
AcDbEntity
  8
0
  6
Continuous
 62
     7
370
    15
100
AcDbPolyline
 90
        9
 70
   128
 43
0.0
 10
472.1647364872
 20
560.8588642732
 10
472.1690578239996
 20
560.8588642732
 10
472.1039993541999
 20
560.8588642732
 10
471.9696206825
 20
560.8588642732
 10
471.7660112159999
 20
560.8588642732
 10
471.4932901637999
 20
560.8588679984999
 10
471.1516661423
 20
560.8588679984999
 10
470.7414073723
 20
560.8588679984999
 10
470.2627522723998
 20
560.8588679984999
  0
LWPOLYLINE
  5
3C9
330
1F
100
AcDbEntity
  8
0
  6
Continuous
 62
     7
370
    15
100
AcDbPolyline
 90
        9
 70
   128
 43
0.0
 10
470.2627522723998
 20
617.8588663985
 10
470.7414073723
 20
617.8588663985
 10
471.1516661423
 20
617.8588661656997
 10
471.4932901637999
 20
617.8588661656997
 10
471.7660112159999
 20
617.8588661656997
 10
471.9696206825
 20
617.8588659329
 10
472.1039993541999
 20
617.8588659329
 10
472.1690578239996
 20
617.8588659329
 10
472.1757037418
 20
617.8588657
  0
LINE
  5
3CA
330
1F
100
AcDbEntity
  8
0
  6
Continuous
 62
     7
370
    15
100
AcDbLine
 10
461.1647224204999
 20
560.8588663665
 30
0.0
 11
461.1647224204999
 21
560.8588657423
 31
0.0
  0
LWPOLYLINE
  5
3CB
330
1F
100
AcDbEntity
  8
0
  6
Continuous
 62
     7
370
    15
100
AcDbPolyline
 90
        3
 70
   128
 43
0.0
 10
474.164710738
 20
562.5135227398
 10
473.9572567719
 20
561.5135244384998
 10
473.9436669127999
 20
561.4818371193
  0
LINE
  5
3CC
330
1F
100
AcDbEntity
  8
0
  6
Continuous
 62
     7
370
    15
100
AcDbLine
 10
474.1647224221996
 20
562.6496434576996
 30
0.0
 11
474.1647224221996
 21
562.5135229009998
 31
0.0
  0
LINE
  5
3CD
330
1F
100
AcDbEntity
  8
0
  6
Continuous
 62
     7
370
    15
100
AcDbLine
 10
461.1647224204999
 20
560.8588657423
 30
0.0
 11
461.1647224204999
 21
560.5587767717
 31
0.0
  0
LWPOLYLINE
  5
3CE
330
1F
100
AcDbEntity
  8
0
  6
Continuous
 62
     7
370
    15
100
AcDbPolyline
 90
        3
 70
   128
 43
0.0
 10
473.9436669127999
 20
617.2358937852999
 10
473.9572567719
 20
617.2042083287
 10
474.164710738
 20
616.2042086303999
  0
LINE
  5
3CF
330
1F
100
AcDbEntity
  8
0
  6
Continuous
 62
     7
370
    15
100
AcDbLine
 10
474.1647224221996
 20
616.2042084887
 30
0.0
 11
474.1647224221996
 21
616.0680881498999
 31
0.0
  0
LINE
  5
3D0
330
1F
100
AcDbEntity
  8
0
  6
Continuous
 62
     7
370
    15
100
AcDbLine
 10
472.1647364872
 20
617.8588657
 30
0.0
 11
461.1647224204999
 21
617.8588657423
 31
0.0
  0
LINE
  5
3D1
330
1F
100
AcDbEntity
  8
0
  6
Continuous
 62
     7
370
    15
100
AcDbLine
 10
461.1647224204999
 20
618.1589546515
 30
0.0
 11
461.1647224204999
 21
617.8588657423
 31
0.0
  0
LINE
  5
3D2
330
1F
100
AcDbEntity
  8
0
  6
Continuous
 62
     7
370
    15
100
AcDbLine
 10
466.1647224205
 20
557.2343573219999
 30
0.0
 11
466.1647224205
 21
560.2146018219
 31
0.0
  0
LINE
  5
3D3
330
1F
100
AcDbEntity
  8
0
  6
Continuous
 62
     7
370
    15
100
AcDbLine
 10
472.1718890445997
 20
557.2343542531998
 30
0.0
 11
466.1647224205
 21
557.2343573219999
 31
0.0
  0
LINE
  5
3D4
330
1F
100
AcDbEntity
  8
0
  6
Continuous
 62
     7
370
    15
100
AcDbLine
 10
472.1573455112999
 20
556.8588673428997
 30
0.0
 11
461.1647224204999
 21
556.8588653735996
 31
0.0
  0
LINE
  5
3D5
330
1F
100
AcDbEntity
  8
0
  6
Continuous
 62
     7
370
    15
100
AcDbLine
 10
466.1647224205
 20
560.2146018219
 30
0.0
 11
472.1647364872
 21
560.2146013930997
 31
0.0
  0
LINE
  5
3D6
330
1F
100
AcDbEntity
  8
0
  6
Continuous
 62
     7
370
    15
100
AcDbLine
 10
461.1647224204999
 20
560.5587767717
 30
0.0
 11
461.1647224204999
 21
556.8588653735996
 31
0.0
  0
ARC
  5
3D7
330
1F
100
AcDbEntity
  8
0
  6
Continuous
 62
     7
370
    15
100
AcDbCircle
 10
472.1132977355
 20
562.1690490399998
 30
0.0
 40
1.955124433230928
100
AcDbArc
 50
271.5076091549
 51
339.4213588912
  0
ARC
  5
3D8
330
1F
100
AcDbEntity
  8
0
  6
Continuous
 62
     7
370
    15
100
AcDbCircle
 10
472.1132972879
 20
616.5486812362001
 30
0.0
 40
1.95512507315837
100
AcDbArc
 50
20.5786537376
 51
88.4923782164
  0
LINE
  5
3D9
330
1F
100
AcDbEntity
  8
0
  6
Continuous
 62
     7
370
    15
100
AcDbLine
 10
472.1573455112999
 20
621.8588653660997
 30
0.0
 11
461.1647224204999
 21
621.8588653736
 31
0.0
  0
LINE
  5
3DA
330
1F
100
AcDbEntity
  8
0
  6
Continuous
 62
     7
370
    15
100
AcDbLine
 10
466.1647224205
 20
621.4833736005
 30
0.0
 11
472.1718890445997
 21
621.4833735954997
 31
0.0
  0
LINE
  5
3DB
330
1F
100
AcDbEntity
  8
0
  6
Continuous
 62
     7
370
    15
100
AcDbLine
 10
466.1647224205
 20
621.4833736005
 30
0.0
 11
466.1647224205
 21
618.5031295677998
 31
0.0
  0
LINE
  5
3DC
330
1F
100
AcDbEntity
  8
0
  6
Continuous
 62
     7
370
    15
100
AcDbLine
 10
472.1647364872
 20
618.5031295113997
 30
0.0
 11
466.1647224205
 21
618.5031295677998
 31
0.0
  0
LINE
  5
3DD
330
1F
100
AcDbEntity
  8
0
  6
Continuous
 62
     7
370
    15
100
AcDbLine
 10
461.1647224204999
 20
621.8588653736
 30
0.0
 11
461.1647224204999
 21
618.1589546515
 31
0.0
  0
LINE
  5
3DE
330
1F
100
AcDbEntity
  8
0
  6
Continuous
 62
     7
370
    15
100
AcDbLine
 10
474.1681082028
 20
619.4505491818
 30
0.0
 11
474.1681082028
 21
616.0328527273
 31
0.0
  0
LINE
  5
3DF
330
1F
100
AcDbEntity
  8
0
  6
Continuous
 62
     7
370
    15
100
AcDbLine
 10
474.1725189464998
 20
619.6483993496
 30
0.0
 11
474.1721613185998
 21
619.6319814132
 31
0.0
  0
LINE
  5
3E0
330
1F
100
AcDbEntity
  8
0
  6
Continuous
 62
     7
370
    15
100
AcDbLine
 10
474.1721613185998
 20
559.0852163091999
 30
0.0
 11
474.1725189464998
 21
559.0693316714
 31
0.0
  0
LINE
  5
3E1
330
1F
100
AcDbEntity
  8
0
  6
Continuous
 62
     7
370
    15
100
AcDbLine
 10
474.1681082028
 20
562.684878643
 30
0.0
 11
474.1681082028
 21
559.2671818392
 31
0.0
  0
LINE
  5
3E2
330
1F
100
AcDbEntity
  8
0
  6
Continuous
 62
     7
370
    15
100
AcDbLine
 10
472.1597357431
 20
556.8588653735996
 30
0.0
 11
472.1573455112999
 21
556.8588673428997
 31
0.0
  0
ARC
  5
3E3
330
1F
100
AcDbEntity
  8
0
  6
Continuous
 62
     7
370
    15
100
AcDbCircle
 10
472.1521176463999
 20
559.2503183876
 30
0.0
 40
2.016061085226615
100
AcDbArc
 50
270.5619055093
 51
0.4792592226
  0
ARC
  5
3E4
330
1F
100
AcDbEntity
  8
0
  6
Continuous
 62
     7
370
    15
100
AcDbCircle
 10
472.1879313454
 20
558.7916388742
 30
0.0
 40
1.932977269721384
100
AcDbArc
 50
269.1640394433
 51
344.5552413066
  0
ARC
  5
3E5
330
1F
100
AcDbEntity
  8
0
  6
Continuous
 62
     7
370
    15
100
AcDbCircle
 10
472.1576865391999
 20
619.4728781006999
 30
0.0
 40
2.010545658712107
100
AcDbArc
 50
359.3636657269
 51
89.5952589392
  0
LINE
  5
3E6
330
1F
100
AcDbEntity
  8
0
  6
Continuous
 62
     7
370
    15
100
AcDbLine
 10
472.1573455112999
 20
621.8588653660997
 30
0.0
 11
472.1597296969996
 21
621.8588653660997
 31
0.0
  0
ARC
  5
3E7
330
1F
100
AcDbEntity
  8
0
  6
Continuous
 62
     7
370
    15
100
AcDbCircle
 10
472.1869256445
 20
619.9238136988
 30
0.0
 40
1.935242768919764
100
AcDbArc
 50
15.3367989052
 51
90.80520352569999
  0
LINE
  5
3E8
330
1F
100
AcDbEntity
  8
0
  6
Continuous
 62
     7
370
    15
100
AcDbLine
 10
471.4664997216998
 20
556.8588650816
 30
0.0
 11
472.1597357431
 21
556.8588653735996
 31
0.0
  0
LINE
  5
3E9
330
1F
100
AcDbEntity
  8
0
  6
Continuous
 62
     7
370
    15
100
AcDbLine
 10
471.4664997216998
 20
556.8588650816
 30
0.0
 11
461.1647224204999
 21
556.8588653735996
 31
0.0
  0
LINE
  5
3EA
330
1F
100
AcDbEntity
  8
0
  6
Continuous
 62
     7
370
    15
100
AcDbLine
 10
247.1647238212
 20
645.8588651672998
 30
0.0
 11
247.1647238212
 21
653.8588664786
 31
0.0
  0
LINE
  5
3EB
330
1F
100
AcDbEntity
  8
0
  6
Continuous
 62
     7
370
    15
100
AcDbLine
 10
242.164721139
 20
645.8588651672998
 30
0.0
 11
247.1647238212
 21
645.8588651672998
 31
0.0
  0
LINE
  5
3EC
330
1F
100
AcDbEntity
  8
0
  6
Continuous
 62
     7
370
    15
100
AcDbLine
 10
247.1647238212
 20
653.8588664786
 30
0.0
 11
338.6647224205
 21
653.8588649648
 31
0.0
  0
LINE
  5
3ED
330
1F
100
AcDbEntity
  8
0
  6
Continuous
 62
     7
370
    15
100
AcDbLine
 10
242.164721139
 20
685.8588679984999
 30
0.0
 11
338.664726712
 21
685.8588679984999
 31
0.0
  0
LINE
  5
3EE
330
1F
100
AcDbEntity
  8
0
  6
Continuous
 62
     7
370
    15
100
AcDbLine
 10
338.6647224205
 20
653.8588649648
 30
0.0
 11
338.664726712
 21
685.8588679984999
 31
0.0
  0
LINE
  5
3EF
330
1F
100
AcDbEntity
  8
0
  6
Continuous
 62
     7
370
    15
100
AcDbLine
 10
338.6647224205
 20
650.8588649647997
 30
0.0
 11
338.6647224205
 21
653.8588649648
 31
0.0
  0
LINE
  5
3F0
330
1F
100
AcDbEntity
  8
0
  6
Continuous
 62
     7
370
    15
100
AcDbLine
 10
323.1647176521
 20
693.8588618592
 30
0.0
 11
320.1647264736
 21
685.8588679984999
 31
0.0
  0
LINE
  5
3F1
330
1F
100
AcDbEntity
  8
0
  6
Continuous
 62
     7
370
    15
100
AcDbLine
 10
323.1647176521
 20
693.8588618592
 30
0.0
 11
338.664726712
 21
693.8588618592
 31
0.0
  0
LINE
  5
3F2
330
1F
100
AcDbEntity
  8
0
  6
Continuous
 62
     7
370
    15
100
AcDbLine
 10
338.664726712
 20
693.8588618592
 30
0.0
 11
338.664726712
 21
685.8588679984999
 31
0.0
  0
LINE
  5
3F3
330
1F
100
AcDbEntity
  8
0
  6
Continuous
 62
     7
370
    15
100
AcDbLine
 10
247.1647238212
 20
645.8588651672998
 30
0.0
 11
338.664726712
 21
645.8588651672998
 31
0.0
  0
LINE
  5
3F4
330
1F
100
AcDbEntity
  8
0
  6
Continuous
 62
     7
370
    15
100
AcDbLine
 10
338.664726712
 20
645.8588651672998
 30
0.0
 11
338.6647224205
 21
650.8588649647997
 31
0.0
  0
LINE
  5
3F5
330
1F
100
AcDbEntity
  8
0
  6
Continuous
 62
     7
370
    15
100
AcDbLine
 10
281.1647219437
 20
700.8588685946
 30
0.0
 11
281.1647219437
 21
685.8588679984999
 31
0.0
  0
LINE
  5
3F6
330
1F
100
AcDbEntity
  8
0
  6
Continuous
 62
     7
370
    15
100
AcDbLine
 10
291.1647198575
 20
700.8588685946
 30
0.0
 11
291.1647198575
 21
685.8588679984999
 31
0.0
  0
LINE
  5
3F7
330
1F
100
AcDbEntity
  8
0
  6
Continuous
 62
     7
370
    15
100
AcDbLine
 10
281.1647219437
 20
700.8588685946
 30
0.0
 11
291.1647198575
 21
700.8588685946
 31
0.0
  0
LINE
  5
3F8
330
1F
100
AcDbEntity
  8
0
  6
Continuous
 62
     7
370
    15
100
AcDbLine
 10
326.1647224205
 20
698.8588649648
 30
0.0
 11
332.6647224205
 21
698.8588649648
 31
0.0
  0
LINE
  5
3F9
330
1F
100
AcDbEntity
  8
0
  6
Continuous
 62
     7
370
    15
100
AcDbLine
 10
283.1647224205
 20
704.8588649647997
 30
0.0
 11
289.1647224205
 21
704.8588649647997
 31
0.0
  0
LINE
  5
402
330
1F
100
AcDbEntity
  8
0
  6
Continuous
 62
     7
370
    15
100
AcDbLine
 10
347.164721586
 20
627.3588649288996
 30
0.0
 11
287.1647192019
 21
627.3588649288996
 31
0.0
  0
LINE
  5
403
330
1F
100
AcDbEntity
  8
0
  6
Continuous
 62
     7
370
    15
100
AcDbLine
 10
347.1647224205
 20
619.3588649647997
 30
0.0
 11
347.164721586
 21
627.3588649288996
 31
0.0
  0
LINE
  5
404
330
1F
100
AcDbEntity
  8
0
  6
Continuous
 62
     7
370
    15
100
AcDbLine
 10
347.1647224205
 20
619.3588649647997
 30
0.0
 11
287.1647224205
 21
619.3588649647997
 31
0.0
  0
LINE
  5
405
330
1F
100
AcDbEntity
  8
0
  6
Continuous
 62
     7
370
    15
100
AcDbLine
 10
287.1647224205
 20
619.3588649647997
 30
0.0
 11
287.1647192019
 21
627.3588649288996
 31
0.0
  0
CIRCLE
  5
406
330
1F
100
AcDbEntity
  8
0
  6
Continuous
 62
     7
370
    15
100
AcDbCircle
 10
337.1647224205
 20
623.3588649647997
 30
0.0
 40
1.649999999999975
  0
CIRCLE
  5
407
330
1F
100
AcDbEntity
  8
0
  6
Continuous
 62
     7
370
    15
100
AcDbCircle
 10
297.1647224205
 20
623.3588649647997
 30
0.0
 40
1.649999999999975
  0
LINE
  5
408
330
1F
100
AcDbEntity
  8
0
  6
Continuous
 62
     7
370
    15
100
AcDbLine
 10
347.1647224205
 20
559.3588649647996
 30
0.0
 11
287.1647224205
 21
559.3588649647996
 31
0.0
  0
LINE
  5
409
330
1F
100
AcDbEntity
  8
0
  6
Continuous
 62
     7
370
    15
100
AcDbLine
 10
347.164721586
 20
551.3588636474
 30
0.0
 11
287.1647192019
 21
551.3588636474
 31
0.0
  0
CIRCLE
  5
40A
330
1F
100
AcDbEntity
  8
0
  6
Continuous
 62
     7
370
    15
100
AcDbCircle
 10
297.1647224205
 20
555.3588649647998
 30
0.0
 40
1.649999999999864
  0
CIRCLE
  5
40B
330
1F
100
AcDbEntity
  8
0
  6
Continuous
 62
     7
370
    15
100
AcDbCircle
 10
337.1647224205
 20
555.3588649647998
 30
0.0
 40
1.65000000000009
  0
LINE
  5
40C
330
1F
100
AcDbEntity
  8
0
  6
Continuous
 62
     7
370
    15
100
AcDbLine
 10
287.1647192019
 20
551.3588636474
 30
0.0
 11
287.1647224205
 21
559.3588649647996
 31
0.0
  0
LINE
  5
40D
330
1F
100
AcDbEntity
  8
0
  6
Continuous
 62
     7
370
    15
100
AcDbLine
 10
347.164721586
 20
551.3588636474
 30
0.0
 11
347.1647224205
 21
559.3588649647996
 31
0.0
  0
LINE
  5
40E
330
1F
100
AcDbEntity
  8
0
  6
Continuous
 62
     7
370
    15
100
AcDbLine
 10
287.1647224205
 20
619.3588649647997
 30
0.0
 11
287.1647224205
 21
617.8588663665
 31
0.0
  0
LINE
  5
40F
330
1F
100
AcDbEntity
  8
0
  6
Continuous
 62
     7
370
    15
100
AcDbLine
 10
347.1647224205
 20
619.3588649647997
 30
0.0
 11
347.1647224205
 21
617.8588663665
 31
0.0
  0
LINE
  5
410
330
1F
100
AcDbEntity
  8
0
  6
Continuous
 62
     7
370
    15
100
AcDbLine
 10
287.1647224205
 20
560.8588660307
 30
0.0
 11
287.1647224205
 21
559.3588649647996
 31
0.0
  0
LINE
  5
411
330
1F
100
AcDbEntity
  8
0
  6
Continuous
 62
     7
370
    15
100
AcDbLine
 10
347.1647224205
 20
560.8588660307
 30
0.0
 11
347.1647224205
 21
559.3588649647996
 31
0.0
  0
DIMENSION
  5
479
330
1F
100
AcDbEntity
  8
0
  6
Continuous
 62
     7
370
     0
100
AcDbDimension
  2
*D17
 10
317.1647224205
 20
493.0601197937
 30
0.0
 11
308.560872941
 21
493.0601197937
 31
0.0
 70
   160
 71
     5
 42
-1.0
  3
SLDDIMSTYLE0
100
AcDbAlignedDimension
 13
296.1647224205
 23
514.7968620752
 33
0.0
 14
317.1647224205
 24
530.8775631057
 34
0.0
100
AcDbRotatedDimension
  0
DIMENSION
  5
483
330
1F
100
AcDbEntity
  8
0
  6
Continuous
 62
     7
370
     0
100
AcDbDimension
  2
*D18
 10
252.1647224205
 20
524.8748423680998
 30
0.0
 11
273.0532305357
 21
524.8748423680998
 31
0.0
 70
   160
 71
     5
 42
-1.0
  3
SLDDIMSTYLE0
100
AcDbAlignedDimension
 13
296.1647224205
 23
514.7968620752
 33
0.0
 14
252.1647224205
 24
554.8588649647999
 34
0.0
100
AcDbRotatedDimension
  0
DIMENSION
  5
48C
330
1F
100
AcDbEntity
  8
0
  6
Continuous
 62
     7
370
     0
100
AcDbDimension
  2
*D19
 10
417.1647224205
 20
522.2117262354998
 30
0.0
 11
377.3188790471
 21
522.2117262354998
 31
0.0
 70
   160
  1
Stroke
 71
     5
 42
100.0
  3
SLDDIMSTYLE0
100
AcDbAlignedDimension
 13
317.1647224205
 23
530.8775631057
 33
0.0
 14
417.1647224205
 24
504.7601392351
 34
0.0
100
AcDbRotatedDimension
  0
DIMENSION
  5
495
330
1F
100
AcDbEntity
  8
0
  6
Continuous
 62
     7
370
     0
100
AcDbDimension
  2
*D20
 10
417.1647224205
 20
522.2117262354998
 30
0.0
 11
445.4421127595
 21
522.2117262354998
 31
0.0
 70
   160
 71
     5
 42
-1.0
  3
SLDDIMSTYLE0
100
AcDbAlignedDimension
 13
474.1647224221996
 23
596.4907819822
 33
0.0
 14
417.1647224205
 24
504.7601392351
 34
0.0
100
AcDbRotatedDimension
  0
DIMENSION
  5
49E
330
1F
100
AcDbEntity
  8
0
  6
Continuous
 62
     7
370
     0
100
AcDbDimension
  2
*D21
 10
337.1647224205
 20
634.1673304865
 30
0.0
 11
318.9388902356
 21
634.1673304865
 31
0.0
 70
   160
 71
     5
 42
-1.0
  3
SLDDIMSTYLE0
100
AcDbAlignedDimension
 13
297.1647224205
 23
623.3588649647997
 33
0.0
 14
337.1647224205
 24
623.3588649647997
 34
0.0
100
AcDbRotatedDimension
  0
DIMENSION
  5
4A8
330
1F
100
AcDbEntity
  8
0
  6
Continuous
 62
     7
370
     0
100
AcDbDimension
  2
*D22
 10
347.1647224205
 20
666.7356529662001
 30
0.0
 11
318.9388902356
 21
666.7356529662001
 31
0.0
 70
   160
 71
     5
 42
-1.0
  3
SLDDIMSTYLE0
100
AcDbAlignedDimension
 13
287.1647224205
 23
627.3588649647997
 33
0.0
 14
347.1647224205
 24
627.3588649647997
 34
0.0
100
AcDbRotatedDimension
  0
DIMENSION
  5
4B2
330
1F
100
AcDbEntity
  8
0
  6
Continuous
 62
     7
370
     0
100
AcDbDimension
  2
*D23
 10
365.8708572816
 20
555.3588649647998
 30
0.0
 11
365.8708572816
 21
587.2630860363
 31
0.0
 70
   160
 71
     5
 42
-1.0
  3
SLDDIMSTYLE0
100
AcDbAlignedDimension
 13
337.1647224205
 23
623.3588649647997
 33
0.0
 14
337.1647224205
 24
555.3588649647998
 34
0.0
 50
90.0
100
AcDbRotatedDimension
  0
DIMENSION
  5
4BC
330
1F
100
AcDbEntity
  8
0
  6
Continuous
 62
     7
370
     0
100
AcDbDimension
  2
*D24
 10
252.1647224205
 20
524.8748423680998
 30
0.0
 11
228.0312482569
 21
524.8748423680998
 31
0.0
 70
   160
 71
     5
 42
-1.0
  3
SLDDIMSTYLE0
100
AcDbAlignedDimension
 13
202.1647224205
 23
554.8588649647999
 33
0.0
 14
252.1647224205
 24
554.8588649647999
 34
0.0
100
AcDbRotatedDimension
  0
DIMENSION
  5
4C6
330
1F
100
AcDbEntity
  8
0
  6
Continuous
 62
     7
370
     0
100
AcDbDimension
  2
*D25
 10
168.1647224205
 20
554.8588649647999
 30
0.0
 11
168.1647224205
 21
634.1673304865
 31
0.0
 70
   160
 71
     5
 42
-1.0
  3
SLDDIMSTYLE0
100
AcDbAlignedDimension
 13
202.1647224205
 23
703.8588649648
 33
0.0
 14
202.1647224205
 24
554.8588649647999
 34
0.0
 50
90.0
100
AcDbRotatedDimension
  0
INSERT
  5
4DA
330
1F
100
AcDbEntity
  8
0
  6
Continuous
 62
     7
370
     0
100
AcDbBlockReference
  2
SW_NOTE_4
 10
365.7346176423
 20
646.1291798346
 30
0.0
  0
LEADER
  5
4DB
330
1F
100
AcDbEntity
  8
0
  6
Continuous
 62
     7
370
     0
100
AcDbLeader
  3
SLDDIMSTYLE1
 76
     2
 10
338.7254863721
 20
623.8941367533
 30
0.0
 10
365.7346176423
 20
646.1291798346
 30
0.0
  0
INSERT
  5
4E0
102
{ACAD_REACTORS
330
4E1
102
}
330
1F
100
AcDbEntity
  8
0
  6
Continuous
 62
     7
370
     0
100
AcDbBlockReference
  2
SW_NOTE_5
 10
283.603016015
 20
509.2057858693998
 30
0.0
  0
LEADER
  5
4E1
330
1F
100
AcDbEntity
  8
0
  6
Continuous
 62
     7
370
     0
100
AcDbLeader
  3
SLDDIMSTYLE1
 73
     2
 76
     2
 10
296.1612129717
 20
509.5034285076
 30
0.0
 10
283.603016015
 20
509.2057858693998
 30
0.0
340
4E0
  0
INSERT
  5
4E6
330
1F
100
AcDbEntity
  8
0
  6
Continuous
 62
     7
370
     0
100
AcDbBlockReference
  2
SW_NOTE_6
 10
434.0364574647
 20
509.2164487544
 30
0.0
  0
LEADER
  5
4E7
330
1F
100
AcDbEntity
  8
0
  6
Continuous
 62
     7
370
     0
100
AcDbLeader
  3
SLDDIMSTYLE1
 76
     2
 10
417.1647224205
 20
513.5173637798
 30
0.0
 10
434.0364574647
 20
509.2164487544
 30
0.0
  0
INSERT
  5
4EC
330
1F
100
AcDbEntity
  8
0
  6
Continuous
 62
     7
370
     0
100
AcDbBlockReference
  2
SW_NOTE_7
 10
363.2882156945
 20
693.8656277649
 30
0.0
  0
LEADER
  5
4ED
330
1F
100
AcDbEntity
  8
0
  6
Continuous
 62
     7
370
     0
100
AcDbLeader
  3
SLDDIMSTYLE1
 76
     2
 10
338.6647224205
 20
682.2708252825
 30
0.0
 10
363.2882156945
 20
693.8656277649
 30
0.0
  0
LINE
  5
4EE
330
1F
100
AcDbEntity
  8
0
  6
CENTERX2
 62
     7
370
     0
100
AcDbLine
 10
317.1647224205
 20
530.8775631057
 30
0.0
 11
317.1647224205
 21
633.3588649648
 31
0.0
  0
LINE
  5
4EF
330
1F
100
AcDbEntity
  8
0
  6
Continuous
 62
     7
370
    15
100
AcDbLine
 10
474.175707795
 20
251.5778126674
 30
0.0
 11
474.175707795
 21
312.1568803456
 31
0.0
  0
ARC
  5
4F0
330
1F
100
AcDbEntity
  8
0
  6
Continuous
 62
     7
370
    15
100
AcDbCircle
 10
472.0048183629
 20
251.4797586805
 30
0.0
 40
2.172336686894293
100
AcDbArc
 50
341.2372439577
 51
3.009993862299997
  0
LWPOLYLINE
  5
4F1
330
1F
100
AcDbEntity
  8
0
  6
Continuous
 62
     7
370
    15
100
AcDbPolyline
 90
        3
 70
   128
 43
0.0
 10
474.174605109
 20
312.1406939592
 10
474.1626245754
 20
312.4744576182
 10
474.1200966614
 20
312.718479034
  0
LWPOLYLINE
  5
4F2
330
1F
100
AcDbEntity
  8
0
  6
Continuous
 62
     7
370
    15
100
AcDbPolyline
 90
        3
 70
   128
 43
0.0
 10
474.1010231750999
 20
312.8278833594
 10
474.0933341758998
 20
312.8720205989
 10
474.0643961208
 20
312.9487243261
  0
LINE
  5
4F3
330
1F
100
AcDbEntity
  8
0
  6
Continuous
 62
     7
370
    15
100
AcDbLine
 10
232.1647232252
 20
209.3673479524
 30
0.0
 11
231.6647222119
 21
209.3673479524
 31
0.0
  0
LINE
  5
4F4
330
1F
100
AcDbEntity
  8
0
  6
Continuous
 62
     7
370
    15
100
AcDbLine
 10
326.1647237318
 20
177.3673501577
 30
0.0
 11
326.1647224205
 21
172.3673470522
 31
0.0
  0
LINE
  5
4F5
330
1F
100
AcDbEntity
  8
0
  6
Continuous
 62
     7
370
    15
100
AcDbLine
 10
332.6647224205
 20
172.3673470522
 30
0.0
 11
332.6647294539
 21
177.3673501577
 31
0.0
  0
LINE
  5
4F6
330
1F
100
AcDbEntity
  8
0
  6
Continuous
 62
     7
370
    15
100
AcDbLine
 10
283.1647259968
 20
170.3673434224
 30
0.0
 11
283.1647224205
 21
166.3673470522
 31
0.0
  0
LINE
  5
4F7
330
1F
100
AcDbEntity
  8
0
  6
Continuous
 62
     7
370
    15
100
AcDbLine
 10
289.1647224205
 20
166.3673470522
 30
0.0
 11
289.164723255
 21
170.3673434224
 31
0.0
  0
LINE
  5
4F8
330
1F
100
AcDbEntity
  8
0
  6
Continuous
 62
     7
370
    15
100
AcDbLine
 10
242.164721139
 20
168.9673495259
 30
0.0
 11
231.6647222119
 21
168.9673495259
 31
0.0
  0
LINE
  5
4F9
330
1F
100
AcDbEntity
  8
0
  6
Continuous
 62
     7
370
    15
100
AcDbLine
 10
242.164721139
 20
167.3673447933
 30
0.0
 11
202.1647220331
 21
167.3673447933
 31
0.0
  0
LINE
  5
4FA
330
1F
100
AcDbEntity
  8
0
  6
Continuous
 62
     7
370
    15
100
AcDbLine
 10
202.1647220331
 20
316.3673487272
 30
0.0
 11
252.1647227781
 21
316.3673487272
 31
0.0
  0
LINE
  5
4FB
330
1F
100
AcDbEntity
  8
0
  6
Continuous
 62
     7
370
    15
100
AcDbLine
 10
252.1647227781
 20
316.3673487272
 30
0.0
 11
252.1647227781
 21
314.7673439946
 31
0.0
  0
LINE
  5
4FC
330
1F
100
AcDbEntity
  8
0
  6
Continuous
 62
     7
370
    15
100
AcDbLine
 10
231.6647222119
 20
314.7673439946
 30
0.0
 11
252.1647227781
 21
314.7673439946
 31
0.0
  0
LINE
  5
4FD
330
1F
100
AcDbEntity
  8
0
  6
Continuous
 62
     7
370
    15
100
AcDbLine
 10
231.6647222119
 20
314.7673439946
 30
0.0
 11
231.6647222119
 21
168.9673495259
 31
0.0
  0
LINE
  5
4FE
330
1F
100
AcDbEntity
  8
0
  6
Continuous
 62
     7
370
    15
100
AcDbLine
 10
242.164721139
 20
168.9673495259
 30
0.0
 11
242.164721139
 21
167.3673447933
 31
0.0
  0
LINE
  5
4FF
330
1F
100
AcDbEntity
  8
0
  6
Continuous
 62
     7
370
    15
100
AcDbLine
 10
202.1647220331
 20
167.3673447933
 30
0.0
 11
202.1647220331
 21
316.3673487272
 31
0.0
  0
LINE
  5
500
330
1F
100
AcDbEntity
  8
0
  6
Continuous
 62
     7
370
    15
100
AcDbLine
 10
252.1647227781
 20
314.7673439946
 30
0.0
 11
252.1647227781
 21
314.3673446741
 31
0.0
  0
LINE
  5
501
330
1F
100
AcDbEntity
  8
0
  6
Continuous
 62
     7
370
    15
100
AcDbLine
 10
242.164721139
 20
169.3673488464
 30
0.0
 11
242.164721139
 21
168.9673495259
 31
0.0
  0
LINE
  5
502
330
1F
100
AcDbEntity
  8
0
  6
Continuous
 62
     7
370
    15
100
AcDbLine
 10
232.1647232252
 20
314.3673446741
 30
0.0
 11
252.1647227781
 21
314.3673446741
 31
0.0
  0
LINE
  5
503
330
1F
100
AcDbEntity
  8
0
  6
Continuous
 62
     7
370
    15
100
AcDbLine
 10
252.1647227781
 20
314.3673446741
 30
0.0
 11
252.1647224205
 21
311.1536046374
 31
0.0
  0
LINE
  5
504
330
1F
100
AcDbEntity
  8
0
  6
Continuous
 62
     7
370
    15
100
AcDbLine
 10
252.1647224205
 20
252.581089467
 30
0.0
 11
252.1647227781
 21
249.3673470583
 31
0.0
  0
LINE
  5
505
330
1F
100
AcDbEntity
  8
0
  6
Continuous
 62
     7
370
    15
100
AcDbLine
 10
252.1647227781
 20
249.3673470583
 30
0.0
 11
242.164721139
 21
249.3673470583
 31
0.0
  0
LINE
  5
506
330
1F
100
AcDbEntity
  8
0
  6
Continuous
 62
     7
370
    15
100
AcDbLine
 10
242.164721139
 20
169.3673488464
 30
0.0
 11
232.1647232252
 21
169.3673488464
 31
0.0
  0
LINE
  5
507
330
1F
100
AcDbEntity
  8
0
  6
Continuous
 62
     7
370
    15
100
AcDbLine
 10
232.1647232252
 20
169.3673488464
 30
0.0
 11
232.1647232252
 21
314.3673446741
 31
0.0
  0
LINE
  5
508
330
1F
100
AcDbEntity
  8
0
  6
Continuous
 62
     7
370
    15
100
AcDbLine
 10
242.164721139
 20
249.3673470583
 30
0.0
 11
242.164721139
 21
169.3673488464
 31
0.0
  0
LINE
  5
509
330
1F
100
AcDbEntity
  8
0
  6
Continuous
 62
     7
370
    15
100
AcDbLine
 10
252.1647224205
 20
253.9039651225
 30
0.0
 11
252.1647224205
 21
252.581089467
 31
0.0
  0
LINE
  5
50A
330
1F
100
AcDbEntity
  8
0
  6
Continuous
 62
     7
370
    15
100
AcDbLine
 10
461.1647224204999
 20
253.9039651225
 30
0.0
 11
461.1647224204999
 21
252.1289928407
 31
0.0
  0
ARC
  5
50B
330
1F
100
AcDbEntity
  8
0
  6
Continuous
 62
     7
370
    15
100
AcDbCircle
 10
276.1647224205
 20
273.8673470522
 30
0.0
 40
1.299999999999995
100
AcDbArc
 50
171.1501169016
 51
8.849883098400001
  0
LINE
  5
50C
330
1F
100
AcDbEntity
  8
0
  6
Continuous
 62
     7
370
    15
100
AcDbLine
 10
277.4492456784
 20
274.0673470522001
 30
0.0
 11
309.8801991626
 21
274.0673470522001
 31
0.0
  0
ARC
  5
50D
330
1F
100
AcDbEntity
  8
0
  6
Continuous
 62
     7
370
    15
100
AcDbCircle
 10
311.1647224205
 20
273.8673470522
 30
0.0
 40
1.299999999999995
100
AcDbArc
 50
171.1501169016
 51
8.849883098400001
  0
LINE
  5
50E
330
1F
100
AcDbEntity
  8
0
  6
Continuous
 62
     7
370
    15
100
AcDbLine
 10
312.4492456784
 20
274.0673470522001
 30
0.0
 11
461.1647290961998
 21
274.0673479405
 31
0.0
  0
LINE
  5
50F
330
1F
100
AcDbEntity
  8
0
  6
Continuous
 62
     7
370
    15
100
AcDbLine
 10
252.1647227781
 20
274.0673479405
 30
0.0
 11
274.8801991626
 21
274.0673470522001
 31
0.0
  0
CIRCLE
  5
510
330
1F
100
AcDbEntity
  8
0
  6
Continuous
 62
     7
370
    15
100
AcDbCircle
 10
445.1647224205
 20
265.8673470522
 30
0.0
 40
2.100000000000023
  0
CIRCLE
  5
511
330
1F
100
AcDbEntity
  8
0
  6
Continuous
 62
     7
370
    15
100
AcDbCircle
 10
368.1647224205
 20
265.8673470522
 30
0.0
 40
2.099999999999965
  0
CIRCLE
  5
512
330
1F
100
AcDbEntity
  8
0
  6
Continuous
 62
     7
370
    15
100
AcDbCircle
 10
268.1647224205
 20
265.8673470522
 30
0.0
 40
2.099999999999965
  0
LINE
  5
513
330
1F
100
AcDbEntity
  8
0
  6
Continuous
 62
     7
370
    15
100
AcDbLine
 10
252.1647227781
 20
274.0673479405
 30
0.0
 11
252.1647224205
 21
253.9039651225
 31
0.0
  0
LINE
  5
514
330
1F
100
AcDbEntity
  8
0
  6
Continuous
 62
     7
370
    15
100
AcDbLine
 10
461.1647290961998
 20
274.0673479405
 30
0.0
 11
461.1647224204999
 21
253.9039651225
 31
0.0
  0
LINE
  5
515
330
1F
100
AcDbEntity
  8
0
  6
Continuous
 62
     7
370
    15
100
AcDbLine
 10
277.3647224205
 20
274.3673470522
 30
0.0
 11
309.9647224205
 21
274.3673470522
 31
0.0
  0
ARC
  5
516
330
1F
100
AcDbEntity
  8
0
  6
Continuous
 62
     7
370
    15
100
AcDbCircle
 10
276.1647224205
 20
273.8673470522
 30
0.0
 40
1.299999999999995
100
AcDbArc
 50
8.849883098400001
 51
22.619864948
  0
ARC
  5
517
330
1F
100
AcDbEntity
  8
0
  6
Continuous
 62
     7
370
    15
100
AcDbCircle
 10
311.1647224205
 20
273.8673470522
 30
0.0
 40
1.299999999999995
100
AcDbArc
 50
157.380135052
 51
171.1501169016
  0
LINE
  5
518
330
1F
100
AcDbEntity
  8
0
  6
Continuous
 62
     7
370
    15
100
AcDbLine
 10
252.1647227781
 20
274.3673474308
 30
0.0
 11
274.9647224205
 21
274.3673470522
 31
0.0
  0
ARC
  5
519
330
1F
100
AcDbEntity
  8
0
  6
Continuous
 62
     7
370
    15
100
AcDbCircle
 10
276.1647224205
 20
273.8673470522
 30
0.0
 40
1.300000000000042
100
AcDbArc
 50
157.380135052
 51
171.1501169016
  0
LINE
  5
51A
330
1F
100
AcDbEntity
  8
0
  6
Continuous
 62
     7
370
    15
100
AcDbLine
 10
252.1647227781
 20
274.0673479405
 30
0.0
 11
252.1647227781
 21
274.3673474308
 31
0.0
  0
LINE
  5
51B
330
1F
100
AcDbEntity
  8
0
  6
Continuous
 62
     7
370
    15
100
AcDbLine
 10
312.3647224205
 20
274.3673470522
 30
0.0
 11
461.1647290961998
 21
274.3673474308
 31
0.0
  0
ARC
  5
51C
330
1F
100
AcDbEntity
  8
0
  6
Continuous
 62
     7
370
    15
100
AcDbCircle
 10
311.1647224205
 20
273.8673470522
 30
0.0
 40
1.299999999999995
100
AcDbArc
 50
8.849883098400001
 51
22.619864948
  0
LINE
  5
51D
330
1F
100
AcDbEntity
  8
0
  6
Continuous
 62
     7
370
    15
100
AcDbLine
 10
461.1647290961998
 20
274.0673479405
 30
0.0
 11
461.1647290961998
 21
274.3673474308
 31
0.0
  0
LINE
  5
51E
330
1F
100
AcDbEntity
  8
0
  6
Continuous
 62
     7
370
    15
100
AcDbLine
 10
277.3647224205
 20
289.3673470522
 30
0.0
 11
309.9647224205
 21
289.3673470522
 31
0.0
  0
LINE
  5
51F
330
1F
100
AcDbEntity
  8
0
  6
Continuous
 62
     7
370
    15
100
AcDbLine
 10
277.4492456784
 20
289.6673470522
 30
0.0
 11
309.8801991626
 21
289.6673470522
 31
0.0
  0
ARC
  5
520
330
1F
100
AcDbEntity
  8
0
  6
Continuous
 62
     7
370
    15
100
AcDbCircle
 10
311.1647224205
 20
289.8673470522
 30
0.0
 40
1.299999999999995
100
AcDbArc
 50
188.8498830984
 51
202.619864948
  0
ARC
  5
521
330
1F
100
AcDbEntity
  8
0
  6
Continuous
 62
     7
370
    15
100
AcDbCircle
 10
276.1647224205
 20
289.8673470522
 30
0.0
 40
1.299999999999995
100
AcDbArc
 50
337.380135052
 51
351.1501169016
  0
LINE
  5
522
330
1F
100
AcDbEntity
  8
0
  6
Continuous
 62
     7
370
    15
100
AcDbLine
 10
312.4492456784
 20
289.6673470522
 30
0.0
 11
461.1647290961998
 21
289.6673475173
 31
0.0
  0
LINE
  5
523
330
1F
100
AcDbEntity
  8
0
  6
Continuous
 62
     7
370
    15
100
AcDbLine
 10
312.3647224205
 20
289.3673470522
 30
0.0
 11
461.1647290961998
 21
289.3673461642
 31
0.0
  0
ARC
  5
524
330
1F
100
AcDbEntity
  8
0
  6
Continuous
 62
     7
370
    15
100
AcDbCircle
 10
311.1647224205
 20
289.8673470522
 30
0.0
 40
1.299999999999995
100
AcDbArc
 50
337.380135052
 51
351.1501169016
  0
LINE
  5
525
330
1F
100
AcDbEntity
  8
0
  6
Continuous
 62
     7
370
    15
100
AcDbLine
 10
461.1647290961998
 20
289.3673461642
 30
0.0
 11
461.1647290961998
 21
289.6673475173
 31
0.0
  0
LINE
  5
526
330
1F
100
AcDbEntity
  8
0
  6
Continuous
 62
     7
370
    15
100
AcDbLine
 10
252.1647227781
 20
289.3673461642
 30
0.0
 11
274.9647224205
 21
289.3673470522
 31
0.0
  0
LINE
  5
527
330
1F
100
AcDbEntity
  8
0
  6
Continuous
 62
     7
370
    15
100
AcDbLine
 10
252.1647227781
 20
289.6673475173
 30
0.0
 11
274.8801991626
 21
289.6673470522
 31
0.0
  0
ARC
  5
528
330
1F
100
AcDbEntity
  8
0
  6
Continuous
 62
     7
370
    15
100
AcDbCircle
 10
276.1647224205
 20
289.8673470522
 30
0.0
 40
1.299999999999995
100
AcDbArc
 50
188.8498830984
 51
202.619864948
  0
LINE
  5
529
330
1F
100
AcDbEntity
  8
0
  6
Continuous
 62
     7
370
    15
100
AcDbLine
 10
252.1647227781
 20
289.3673461642
 30
0.0
 11
252.1647227781
 21
289.6673475173
 31
0.0
  0
CIRCLE
  5
52A
330
1F
100
AcDbEntity
  8
0
  6
Continuous
 62
     7
370
    15
100
AcDbCircle
 10
268.1647224205
 20
297.8673470522
 30
0.0
 40
2.100000000000023
  0
CIRCLE
  5
52B
330
1F
100
AcDbEntity
  8
0
  6
Continuous
 62
     7
370
    15
100
AcDbCircle
 10
368.1647224205
 20
297.8673470522
 30
0.0
 40
2.099999999999965
  0
CIRCLE
  5
52C
330
1F
100
AcDbEntity
  8
0
  6
Continuous
 62
     7
370
    15
100
AcDbCircle
 10
445.1647224205
 20
297.8673470522
 30
0.0
 40
2.099999999999965
  0
ARC
  5
52D
330
1F
100
AcDbEntity
  8
0
  6
Continuous
 62
     7
370
    15
100
AcDbCircle
 10
311.1647224205
 20
289.8673470522
 30
0.0
 40
1.299999999999995
100
AcDbArc
 50
351.1501169016
 51
188.8498830984
  0
ARC
  5
52E
330
1F
100
AcDbEntity
  8
0
  6
Continuous
 62
     7
370
    15
100
AcDbCircle
 10
276.1647224205
 20
289.8673470522
 30
0.0
 40
1.299999999999995
100
AcDbArc
 50
351.1501169016
 51
188.8498830984
  0
LINE
  5
52F
330
1F
100
AcDbEntity
  8
0
  6
Continuous
 62
     7
370
    15
100
AcDbLine
 10
252.1647224205
 20
309.8307289819
 30
0.0
 11
252.1647227781
 21
289.6673475173
 31
0.0
  0
LINE
  5
530
330
1F
100
AcDbEntity
  8
0
  6
Continuous
 62
     7
370
    15
100
AcDbLine
 10
461.1647224204999
 20
309.8307289819
 30
0.0
 11
461.1647290961998
 21
289.6673475173
 31
0.0
  0
LINE
  5
531
330
1F
100
AcDbEntity
  8
0
  6
Continuous
 62
     7
370
    15
100
AcDbLine
 10
252.1647224205
 20
311.1536046374
 30
0.0
 11
252.1647224205
 21
309.8307289819
 31
0.0
  0
LINE
  5
532
330
1F
100
AcDbEntity
  8
0
  6
Continuous
 62
     7
370
    15
100
AcDbLine
 10
461.1647224204999
 20
311.6057012637
 30
0.0
 11
461.1647224204999
 21
309.8307289819
 31
0.0
  0
ARC
  5
533
330
1F
100
AcDbEntity
  8
0
  6
Continuous
 62
     7
370
    15
100
AcDbCircle
 10
311.1647224205
 20
289.8673470522
 30
0.0
 40
1.299999999999988
100
AcDbArc
 50
202.619864948
 51
337.380135052
  0
ARC
  5
534
330
1F
100
AcDbEntity
  8
0
  6
Continuous
 62
     7
370
    15
100
AcDbCircle
 10
276.1647224205
 20
289.8673470522
 30
0.0
 40
1.299999999999988
100
AcDbArc
 50
202.619864948
 51
337.380135052
  0
ARC
  5
535
330
1F
100
AcDbEntity
  8
0
  6
Continuous
 62
     7
370
    15
100
AcDbCircle
 10
276.1647224205
 20
273.8673470522
 30
0.0
 40
1.300000000000042
100
AcDbArc
 50
22.619864948
 51
157.380135052
  0
ARC
  5
536
330
1F
100
AcDbEntity
  8
0
  6
Continuous
 62
     7
370
    15
100
AcDbCircle
 10
311.1647224205
 20
273.8673470522
 30
0.0
 40
1.299999999999988
100
AcDbArc
 50
22.619864948
 51
157.380135052
  0
LINE
  5
537
330
1F
100
AcDbEntity
  8
0
  6
Continuous
 62
     7
370
    15
100
AcDbLine
 10
252.1647227781
 20
274.3673474308
 30
0.0
 11
252.1647227781
 21
289.3673461642
 31
0.0
  0
LINE
  5
538
330
1F
100
AcDbEntity
  8
0
  6
Continuous
 62
     7
370
    15
100
AcDbLine
 10
461.1647290961998
 20
274.3673474308
 30
0.0
 11
461.1647290961998
 21
289.3673461642
 31
0.0
  0
LINE
  5
539
330
1F
100
AcDbEntity
  8
0
  6
Continuous
 62
     7
370
    15
100
AcDbLine
 10
252.1647227781
 20
249.3673470583
 30
0.0
 11
461.1647224204999
 21
249.3673470522
 31
0.0
  0
LINE
  5
53A
330
1F
100
AcDbEntity
  8
0
  6
Continuous
 62
     7
370
    15
100
AcDbLine
 10
461.1647224204999
 20
252.1289928407
 30
0.0
 11
461.1647224204999
 21
249.3673470522
 31
0.0
  0
LINE
  5
53B
330
1F
100
AcDbEntity
  8
0
  6
Continuous
 62
     7
370
    15
100
AcDbLine
 10
252.1647227781
 20
314.3673446741
 30
0.0
 11
280.1647224205
 21
314.3673470522
 31
0.0
  0
LINE
  5
53C
330
1F
100
AcDbEntity
  8
0
  6
Continuous
 62
     7
370
    15
100
AcDbLine
 10
325.1647224205
 20
314.3673470522
 30
0.0
 11
402.1647224205
 21
314.3673470522
 31
0.0
  0
LINE
  5
53D
330
1F
100
AcDbEntity
  8
0
  6
Continuous
 62
     7
370
    15
100
AcDbLine
 10
447.1647224205
 20
314.3673470522
 30
0.0
 11
461.1647224204999
 21
314.3673469354
 31
0.0
  0
LINE
  5
53E
330
1F
100
AcDbEntity
  8
0
  6
Continuous
 62
     7
370
    15
100
AcDbLine
 10
461.1647224204999
 20
314.3673469354
 30
0.0
 11
461.1647224204999
 21
311.6057012637
 31
0.0
  0
LINE
  5
53F
330
1F
100
AcDbEntity
  8
0
  6
Continuous
 62
     7
370
    15
100
AcDbLine
 10
270.0113443511
 20
266.8673471328
 30
0.0
 11
266.3181064504
 21
266.8673471328
 31
0.0
  0
LINE
  5
540
330
1F
100
AcDbEntity
  8
0
  6
Continuous
 62
     7
370
    15
100
AcDbLine
 10
266.1251140612
 20
298.3673457768
 30
0.0
 11
270.2043292897
 21
298.3673457768
 31
0.0
  0
LINE
  5
541
330
1F
100
AcDbEntity
  8
0
  6
Continuous
 62
     7
370
    15
100
AcDbLine
 10
366.1251081007
 20
298.3673457768
 30
0.0
 11
370.2043307798001
 21
298.3673457768
 31
0.0
  0
LINE
  5
542
330
1F
100
AcDbEntity
  8
0
  6
Continuous
 62
     7
370
    15
100
AcDbLine
 10
443.1251151341
 20
298.3673457768
 30
0.0
 11
447.2043378131998
 21
298.3673457768
 31
0.0
  0
LINE
  5
545
330
1F
100
AcDbEntity
  8
0
  6
Continuous
 62
     7
370
    15
100
AcDbLine
 10
403.1647224205
 20
314.3673470522
 30
0.0
 11
402.1647224205
 21
314.3673470522
 31
0.0
  0
LINE
  5
547
330
1F
100
AcDbEntity
  8
0
  6
Continuous
 62
     7
370
    15
100
AcDbLine
 10
446.1647224205
 20
314.3673470522
 30
0.0
 11
403.1647224205
 21
314.3673470522
 31
0.0
  0
LINE
  5
54A
330
1F
100
AcDbEntity
  8
0
  6
Continuous
 62
     7
370
    15
100
AcDbLine
 10
447.1647224205
 20
314.3673470522
 30
0.0
 11
446.1647224205
 21
314.3673470522
 31
0.0
  0
LINE
  5
556
330
1F
100
AcDbEntity
  8
0
  6
Continuous
 62
     7
370
    15
100
AcDbLine
 10
281.1647224205
 20
314.3673470522
 30
0.0
 11
280.1647224205
 21
314.3673470522
 31
0.0
  0
LINE
  5
558
330
1F
100
AcDbEntity
  8
0
  6
Continuous
 62
     7
370
    15
100
AcDbLine
 10
324.1647224205
 20
314.3673470522
 30
0.0
 11
281.1647224205
 21
314.3673470522
 31
0.0
  0
LINE
  5
55B
330
1F
100
AcDbEntity
  8
0
  6
Continuous
 62
     7
370
    15
100
AcDbLine
 10
325.1647224205
 20
314.3673470522
 30
0.0
 11
324.1647224205
 21
314.3673470522
 31
0.0
  0
ARC
  5
565
330
1F
100
AcDbEntity
  8
0
  6
Continuous
 62
     7
370
    15
100
AcDbCircle
 10
471.4566182113998
 20
251.3706965047
 30
0.0
 40
2.003449216194311
100
AcDbArc
 50
270.7197950248
 51
359.9042066415
  0
ARC
  5
566
330
1F
100
AcDbEntity
  8
0
  6
Continuous
 62
     7
370
    15
100
AcDbCircle
 10
471.4566184683999
 20
312.3639941938
 30
0.0
 40
2.003448966374449
100
AcDbArc
 50
0.095916161
 51
89.2802122359
  0
LINE
  5
567
330
1F
100
AcDbEntity
  8
0
  6
Continuous
 62
     7
370
    15
100
AcDbLine
 10
471.4664997216998
 20
249.3673469354
 30
0.0
 11
471.4817864673999
 21
249.3674053824
 31
0.0
  0
LINE
  5
568
330
1F
100
AcDbEntity
  8
0
  6
Continuous
 62
     7
370
    15
100
AcDbLine
 10
471.4664997216998
 20
249.3673469354
 30
0.0
 11
461.1647224204999
 21
249.3673469354
 31
0.0
  0
LINE
  5
569
330
1F
100
AcDbEntity
  8
0
  6
Continuous
 62
     7
370
    15
100
AcDbLine
 10
461.1647224204999
 20
251.8551339234
 30
0.0
 11
461.1647224204999
 21
249.3673469354
 31
0.0
  0
LINE
  5
56A
330
1F
100
AcDbEntity
  8
0
  6
Continuous
 62
     7
370
    15
100
AcDbLine
 10
471.4664997216998
 20
314.3673469354
 30
0.0
 11
461.1647224204999
 21
314.3673469354
 31
0.0
  0
LINE
  5
56B
330
1F
100
AcDbEntity
  8
0
  6
Continuous
 62
     7
370
    15
100
AcDbLine
 10
471.4817864673999
 20
314.3672850695
 30
0.0
 11
471.4664997216998
 21
314.3673469354
 31
0.0
  0
LINE
  5
56C
330
1F
100
AcDbEntity
  8
0
  6
Continuous
 62
     7
370
    15
100
AcDbLine
 10
461.1647224204999
 20
314.3673469354
 30
0.0
 11
461.1647224204999
 21
311.8795604951
 31
0.0
  0
LWPOLYLINE
  5
56D
330
1F
100
AcDbEntity
  8
0
  6
Continuous
 62
     7
370
    15
100
AcDbPolyline
 90
       20
 70
   128
 43
0.0
 10
472.9246361033998
 20
310.867348757
 10
473.128156163
 20
310.6390033629
 10
473.2937378662
 20
309.9764791098
 10
473.4089238422
 20
308.9605142143
 10
473.4699888008
 20
307.7142108944
 10
473.4772307652
 20
306.3787762787
 10
473.4312159794
 20
305.1012475755
 10
473.3325702923
 20
304.0209171143
 10
473.1837970988998
 20
303.255511519
 10
472.9925257937998
 20
302.8906528618
 10
472.7742237823999
 20
302.9733133283
 10
472.5543124455
 20
303.5045061972
 10
472.3659319655999
 20
304.4280764427
 10
472.2417456882999
 20
305.6275565889
 10
472.2024066227
 20
306.9499303367
 10
472.2513420361
 20
308.2457651165
 10
472.3783595341
 20
309.3881775405
 10
472.5642068165
 20
310.2646079626
 10
472.782330014
 20
310.7723277774
 10
472.9246361033998
 20
310.867348757
  0
LWPOLYLINE
  5
56E
330
1F
100
AcDbEntity
  8
0
  6
Continuous
 62
     7
370
    15
100
AcDbPolyline
 90
       20
 70
   128
 43
0.0
 10
472.9246361033998
 20
260.8673470807
 10
473.128156163
 20
260.6390026178
 10
473.2937378662
 20
259.976479296
 10
473.4089238422
 20
258.9605153319
 10
473.4699888008
 20
257.7142110806
 10
473.4772307652
 20
256.378776465
 10
473.4312159794
 20
255.1012486931
 10
473.3325702923
 20
254.0209168349
 10
473.1837970988998
 20
253.2555126365
 10
472.9925257937998
 20
252.8906521168
 10
472.7742237823999
 20
252.9733139802
 10
472.5543124455
 20
253.5045054522
 10
472.3659319655999
 20
254.428075232
 10
472.2417456882999
 20
255.6275553782
 10
472.2024066227
 20
256.9499295917
 10
472.2513420361
 20
258.245766234
 10
472.3783595341
 20
259.3881777268
 10
472.5642068165
 20
260.2646090802
 10
472.782330014
 20
260.7723279637
 10
472.9246361033998
 20
260.8673470807
  0
ARC
  5
56F
330
1F
100
AcDbEntity
  8
0
  6
Continuous
 62
     7
370
    15
100
AcDbCircle
 10
473.1633821346997
 20
251.5423834922
 30
0.0
 40
1.010083507759288
100
AcDbArc
 50
350.0208706146
 51
2.912047498799998
  0
ARC
  5
570
330
1F
100
AcDbEntity
  8
0
  6
Continuous
 62
     7
370
    15
100
AcDbCircle
 10
473.1556114973
 20
312.1917113646
 30
0.0
 40
1.017840820079259
100
AcDbArc
 50
357.11393224
 51
9.9365874826
  0
LWPOLYLINE
  5
571
330
1F
100
AcDbEntity
  8
0
  6
Continuous
 62
     7
370
    15
100
AcDbPolyline
 90
        9
 70
   128
 43
0.0
 10
472.1597296969996
 20
249.3673466508
 10
472.1290929095998
 20
249.3673466508
 10
472.0824224728
 20
249.3673467091
 10
472.0197481887999
 20
249.3673467673
 10
471.9410700576998
 20
249.3673467673
 10
471.8463582771
 20
249.3673468255
 10
471.7357022541
 20
249.3673468837
 10
471.6090721862999
 20
249.3673468837
 10
471.466497876
 20
249.3673469419
  0
ARC
  5
572
330
1F
100
AcDbEntity
  8
0
  6
Continuous
 62
     7
370
    15
100
AcDbCircle
 10
472.1594020731997
 20
251.3661289511
 30
0.0
 40
1.998782327109029
100
AcDbArc
 50
270.0093914487
 51
0.0349068365
  0
LINE
  5
573
330
1F
100
AcDbEntity
  8
0
  6
Continuous
 62
     7
370
    15
100
AcDbLine
 10
471.4664997216998
 20
314.3673469354
 30
0.0
 11
472.1597357431
 21
314.3673466434
 31
0.0
  0
ARC
  5
574
330
1F
100
AcDbEntity
  8
0
  6
Continuous
 62
     7
370
    15
100
AcDbCircle
 10
472.1594046066
 20
312.3685649073
 30
0.0
 40
1.998779793237535
100
AcDbArc
 50
359.9651189408001
 51
89.99068115809997
  0
LINE
  5
575
330
1F
100
AcDbEntity
  8
0
  6
Continuous
 62
     7
370
    15
100
AcDbLine
 10
472.1573455112999
 20
249.3673466508
 30
0.0
 11
472.1597357431
 21
249.3673466434
 31
0.0
  0
LINE
  5
576
330
1F
100
AcDbEntity
  8
0
  6
Continuous
 62
     7
370
    15
100
AcDbLine
 10
472.1573455112999
 20
249.3673466508
 30
0.0
 11
461.1647224204999
 21
249.3673469354
 31
0.0
  0
LINE
  5
577
330
1F
100
AcDbEntity
  8
0
  6
Continuous
 62
     7
370
    15
100
AcDbLine
 10
242.164721139
 20
185.3673440185
 30
0.0
 11
247.1647238212
 21
185.3673440185
 31
0.0
  0
LINE
  5
578
330
1F
100
AcDbEntity
  8
0
  6
Continuous
 62
     7
370
    15
100
AcDbLine
 10
242.164721139
 20
225.3673468497
 30
0.0
 11
338.664726712
 21
225.3673468497
 31
0.0
  0
LINE
  5
579
330
1F
100
AcDbEntity
  8
0
  6
Continuous
 62
     7
370
    15
100
AcDbLine
 10
247.1647238212
 20
193.3673453298
 30
0.0
 11
338.6647224205
 21
193.3673470522
 31
0.0
  0
LINE
  5
57A
330
1F
100
AcDbEntity
  8
0
  6
Continuous
 62
     7
370
    15
100
AcDbLine
 10
247.1647238212
 20
185.3673440185
 30
0.0
 11
247.1647238212
 21
193.3673453298
 31
0.0
  0
LINE
  5
57B
330
1F
100
AcDbEntity
  8
0
  6
Continuous
 62
     7
370
    15
100
AcDbLine
 10
338.6647224205
 20
193.3673470522
 30
0.0
 11
338.664726712
 21
225.3673468497
 31
0.0
  0
LINE
  5
57C
330
1F
100
AcDbEntity
  8
0
  6
Continuous
 62
     7
370
    15
100
AcDbLine
 10
338.6647224205
 20
190.3673470522
 30
0.0
 11
338.6647224205
 21
193.3673470522
 31
0.0
  0
LINE
  5
57D
330
1F
100
AcDbEntity
  8
0
  6
Continuous
 62
     7
370
    15
100
AcDbLine
 10
338.664726712
 20
177.3673501577
 30
0.0
 11
323.1647176521
 21
177.3673501577
 31
0.0
  0
LINE
  5
57E
330
1F
100
AcDbEntity
  8
0
  6
Continuous
 62
     7
370
    15
100
AcDbLine
 10
323.1647176521
 20
177.3673501577
 30
0.0
 11
320.1647264736
 21
185.3673440185
 31
0.0
  0
LINE
  5
57F
330
1F
100
AcDbEntity
  8
0
  6
Continuous
 62
     7
370
    15
100
AcDbLine
 10
338.664726712
 20
185.3673440185
 30
0.0
 11
320.1647264736
 21
185.3673440185
 31
0.0
  0
LINE
  5
580
330
1F
100
AcDbEntity
  8
0
  6
Continuous
 62
     7
370
    15
100
AcDbLine
 10
338.664726712
 20
177.3673501577
 30
0.0
 11
338.664726712
 21
185.3673440185
 31
0.0
  0
LINE
  5
581
330
1F
100
AcDbEntity
  8
0
  6
Continuous
 62
     7
370
    15
100
AcDbLine
 10
247.1647238212
 20
185.3673440185
 30
0.0
 11
320.1647264736
 21
185.3673440185
 31
0.0
  0
LINE
  5
582
330
1F
100
AcDbEntity
  8
0
  6
Continuous
 62
     7
370
    15
100
AcDbLine
 10
338.664726712
 20
185.3673440185
 30
0.0
 11
338.6647224205
 21
190.3673470522
 31
0.0
  0
LINE
  5
583
330
1F
100
AcDbEntity
  8
0
  6
Continuous
 62
     7
370
    15
100
AcDbLine
 10
281.1647219437
 20
170.3673434224
 30
0.0
 11
281.1647219437
 21
185.3673440185
 31
0.0
  0
LINE
  5
584
330
1F
100
AcDbEntity
  8
0
  6
Continuous
 62
     7
370
    15
100
AcDbLine
 10
291.1647198575
 20
170.3673434224
 30
0.0
 11
291.1647198575
 21
185.3673440185
 31
0.0
  0
LINE
  5
585
330
1F
100
AcDbEntity
  8
0
  6
Continuous
 62
     7
370
    15
100
AcDbLine
 10
291.1647198575
 20
170.3673434224
 30
0.0
 11
281.1647219437
 21
170.3673434224
 31
0.0
  0
LINE
  5
586
330
1F
100
AcDbEntity
  8
0
  6
Continuous
 62
     7
370
    15
100
AcDbLine
 10
232.1647232252
 20
202.3673486675999
 30
0.0
 11
231.6647222119
 21
202.3673486675999
 31
0.0
  0
LINE
  5
587
330
1F
100
AcDbEntity
  8
0
  6
Continuous
 62
     7
370
    15
100
AcDbLine
 10
332.6647224205
 20
172.3673470522
 30
0.0
 11
326.1647224205
 21
172.3673470522
 31
0.0
  0
LINE
  5
588
330
1F
100
AcDbEntity
  8
0
  6
Continuous
 62
     7
370
    15
100
AcDbLine
 10
289.1647224205
 20
166.3673470522
 30
0.0
 11
283.1647224205
 21
166.3673470522
 31
0.0
  0
LINE
  5
58A
330
1F
100
AcDbEntity
  8
0
  6
Continuous
 62
     7
370
    15
100
AcDbLine
 10
347.1647224205
 20
243.8673470522
 30
0.0
 11
287.1647224205
 21
243.8673470522
 31
0.0
  0
LINE
  5
58B
330
1F
100
AcDbEntity
  8
0
  6
Continuous
 62
     7
370
    15
100
AcDbLine
 10
287.1647224205
 20
243.8673470522
 30
0.0
 11
287.1647224205
 21
249.3673470522
 31
0.0
  0
LINE
  5
58C
330
1F
100
AcDbEntity
  8
0
  6
Continuous
 62
     7
370
    15
100
AcDbLine
 10
347.1647224205
 20
243.8673470522
 30
0.0
 11
347.1647224205
 21
249.3673470522
 31
0.0
  0
LINE
  5
58D
330
1F
100
AcDbEntity
  8
0
  6
Continuous
 62
     7
370
    15
100
AcDbLine
 10
347.1647224205
 20
319.8673470522
 30
0.0
 11
287.1647224205
 21
319.8673506451091
 31
0.0
  0
LINE
  5
58E
330
1F
100
AcDbEntity
  8
0
  6
Continuous
 62
     7
370
    15
100
AcDbLine
 10
347.1647224205
 20
314.3673470522
 30
0.0
 11
347.1647224205
 21
319.8673470522
 31
0.0
  0
LINE
  5
58F
330
1F
100
AcDbEntity
  8
0
  6
Continuous
 62
     7
370
    15
100
AcDbLine
 10
232.1647232252
 20
268.8673474606
 30
0.0
 11
231.6647222119
 21
268.8673474606
 31
0.0
  0
LINE
  5
590
330
1F
100
AcDbEntity
  8
0
  6
Continuous
 62
     7
370
    15
100
AcDbLine
 10
231.6647222119
 20
294.8673461344
 30
0.0
 11
232.1647232252
 21
294.8673461344
 31
0.0
  0
DIMENSION
  5
5A0
330
1F
100
AcDbEntity
  8
0
  6
Continuous
 62
     7
370
     0
100
AcDbDimension
  2
*D30
 10
268.1647224205
 20
343.0187624355
 30
0.0
 11
261.041633765
 21
343.0187624355
 31
0.0
 70
   160
 71
     5
 42
-1.0
  3
SLDDIMSTYLE0
100
AcDbAlignedDimension
 13
252.1647224205
 23
309.8307289819
 33
0.0
 14
268.1647224205
 24
297.8673470522
 34
0.0
100
AcDbRotatedDimension
  0
DIMENSION
  5
5AA
330
1F
100
AcDbEntity
  8
0
  6
Continuous
 62
     7
370
     0
100
AcDbDimension
  2
*D31
 10
368.1647224205
 20
343.0187624355
 30
0.0
 11
314.6785214886
 21
343.0187624355
 31
0.0
 70
   160
 71
     5
 42
-1.0
  3
SLDDIMSTYLE0
100
AcDbAlignedDimension
 13
268.1647224205
 23
297.8673470522
 33
0.0
 14
368.1647224205
 24
297.8673470522
 34
0.0
100
AcDbRotatedDimension
  0
DIMENSION
  5
5B4
330
1F
100
AcDbEntity
  8
0
  6
Continuous
 62
     7
370
     0
100
AcDbDimension
  2
*D32
 10
445.1647224205
 20
343.0187624355
 30
0.0
 11
407.534226064
 21
343.0187624355
 31
0.0
 70
   160
 71
     5
 42
-1.0
  3
SLDDIMSTYLE0
100
AcDbAlignedDimension
 13
368.1647224205
 23
297.8673470522
 33
0.0
 14
445.1647224205
 24
297.8673470522
 34
0.0
100
AcDbRotatedDimension
  0
DIMENSION
  5
5BE
330
1F
100
AcDbEntity
  8
0
  6
Continuous
 62
     7
370
     0
100
AcDbDimension
  2
*D33
 10
493.6705345107998
 20
265.8673470522
 30
0.0
 11
493.6705345107998
 21
281.5833223214
 31
0.0
 70
   160
 71
     5
 42
-1.0
  3
SLDDIMSTYLE0
100
AcDbAlignedDimension
 13
445.1647224205
 23
297.8673470522
 33
0.0
 14
445.1647224205
 24
265.8673470522
 34
0.0
 50
90.0
100
AcDbRotatedDimension
  0
DIMENSION
  5
5C8
330
1F
100
AcDbEntity
  8
0
  6
Continuous
 62
     7
370
     0
100
AcDbDimension
  2
*D34
 10
474.1647224221996
 20
343.0187624355
 30
0.0
 11
461.0390088219
 21
343.0187624355
 31
0.0
 70
   160
 71
     5
 42
-1.0
  3
SLDDIMSTYLE0
100
AcDbAlignedDimension
 13
445.1647224205
 23
297.8673470522
 33
0.0
 14
474.1647224221996
 24
283.8287742798
 34
0.0
100
AcDbRotatedDimension
  0
MTEXT
  5
5D3
330
1F
100
AcDbEntity
  8
0
  6
Continuous
 62
     7
370
     0
100
AcDbMText
 10
919.318468869967
 20
187.980149158459
 30
0.0
 40
11.9
 41
0.0
 71
     1
 72
     1
  1
\fCentury Gothic|b1|i0;(單位:mm)
  7
SLDTEXTSTYLE4
 73
     1
 44
1.0
1001
ACAD
1000
MTEXTBEGIN
1070
    73
1070
     1
1070
    44
1040
1.0
1070
    74
1070
     0
1000
MTEXTEND
  0
INSERT
  5
5DE
330
1F
100
AcDbEntity
  8
0
  6
Continuous
 62
     7
370
     0
100
AcDbBlockReference
  2
SW_NOTE_8
 10
384.9064848168
 20
217.950371014
 30
0.0
  0
LEADER
  5
5DF
330
1F
100
AcDbEntity
  8
0
  6
Continuous
 62
     7
370
     0
100
AcDbLeader
  3
SLDDIMSTYLE1
 76
     2
 10
369.1594530529
 20
264.0178847063
 30
0.0
 10
384.9064848168
 20
217.950371014
 30
0.0
  0
MTEXT
  5
5E0
330
1F
100
AcDbEntity
  8
0
  6
Continuous
 62
     7
370
     0
100
AcDbMText
 10
389.7375890623001
 20
215.9025884036
 30
0.0
 40
8.9958333333
 41
0.0
 71
     1
 72
     1
  1
(\U+5e95\U+90e8\U+56fa\U+5b9a\U+5b54\U+4f4d)
  7
SLDTEXTSTYLE1
 73
     1
 44
1.0
1001
ACAD
1000
MTEXTBEGIN
1070
    73
1070
     1
1070
    44
1040
1.0
1070
    74
1070
     0
1000
MTEXTEND
  0
LINE
  5
5E1
330
1F
100
AcDbEntity
  8
0
  6
CENTERX2
 62
     7
370
     0
100
AcDbLine
 10
245.3647224205
 20
281.8673470522
 30
0.0
 11
467.9647224205
 21
281.8673470522
 31
0.0
  0
LINE
  5
5F5
330
1F
100
AcDbEntity
  8
0
100
AcDbLine
 10
313.1647197383
 20
410.8667265463997
 30
0.0
 11
321.1647285002
 21
410.8667265463997
 31
0.0
  0
LINE
  5
5F6
330
1F
100
AcDbEntity
  8
0
100
AcDbLine
 10
313.1647197383
 20
410.3667255330998
 30
0.0
 11
321.1647285002
 21
410.3667255330998
 31
0.0
  0
LINE
  5
5F7
330
1F
100
AcDbEntity
  8
0
100
AcDbLine
 10
288.7147230881
 20
401.7107117761
 30
0.0
 11
321.1647285002
 21
401.7107117761
 31
0.0
  0
LINE
  5
5F8
330
1F
100
AcDbEntity
  8
0
100
AcDbLine
 10
288.7147230881
 20
394.009141608
 30
0.0
 11
316.6147259849
 21
394.009141608
 31
0.0
  0
LINE
  5
5F9
330
1F
100
AcDbEntity
  8
0
100
AcDbLine
 10
281.3757223862
 20
393.5277242053
 30
0.0
 11
323.9537192362
 21
393.5277242053
 31
0.0
  0
LINE
  5
5FA
330
1F
100
AcDbEntity
  8
0
100
AcDbLine
 10
281.5867228287
 20
393.2375818331
 30
0.0
 11
324.1647196787
 21
393.2375818331
 31
0.0
  0
LINE
  5
5FB
330
1F
100
AcDbEntity
  8
0
100
AcDbLine
 10
281.5867228287
 20
392.7520908255
 30
0.0
 11
324.1647196787
 21
392.7520908255
 31
0.0
  0
LINE
  5
5FC
330
1F
100
AcDbEntity
  8
0
100
AcDbLine
 10
281.1647219437
 20
393.2375818331
 30
0.0
 11
281.5867228287
 21
393.2375818331
 31
0.0
  0
LINE
  5
5FE
330
1F
100
AcDbEntity
  8
0
100
AcDbLine
 10
281.1647219437
 20
392.7520908255
 30
0.0
 11
281.5867228287
 21
392.7520908255
 31
0.0
  0
LINE
  5
5FF
330
1F
100
AcDbEntity
  8
0
100
AcDbLine
 10
277.3647246736
 20
388.616726159
 30
0.0
 11
327.9647243994
 21
388.616726159
 31
0.0
  0
LINE
  5
600
330
1F
100
AcDbEntity
  8
0
100
AcDbLine
 10
280.1647199171
 20
378.6167254511
 30
0.0
 11
325.1647217053
 21
378.6167254511
 31
0.0
  0
LINE
  5
601
330
1F
100
AcDbEntity
  8
0
100
AcDbLine
 10
417.7147162932
 20
394.009141608
 30
0.0
 11
424.6647221821
 21
394.009141608
 31
0.0
  0
LINE
  5
602
330
1F
100
AcDbEntity
  8
0
100
AcDbLine
 10
410.1647151487
 20
392.7520908255
 30
0.0
 11
424.6647221821
 21
392.7520908255
 31
0.0
  0
LINE
  5
603
330
1F
100
AcDbEntity
  8
0
100
AcDbLine
 10
410.1647151487
 20
393.2375818331
 30
0.0
 11
424.6647221821
 21
393.2375818331
 31
0.0
  0
LINE
  5
604
330
1F
100
AcDbEntity
  8
0
100
AcDbLine
 10
410.3757155912
 20
393.5277242053
 30
0.0
 11
424.8757226246
 21
393.5277242053
 31
0.0
  0
LINE
  5
605
330
1F
100
AcDbEntity
  8
0
100
AcDbLine
 10
406.3647253292
 20
388.616726159
 30
0.0
 11
431.6647214668
 21
388.616726159
 31
0.0
  0
LINE
  5
606
330
1F
100
AcDbEntity
  8
0
100
AcDbLine
 10
402.1647287386
 20
378.6167254511
 30
0.0
 11
447.1647305267
 21
378.6167254511
 31
0.0
  0
LINE
  5
608
330
1F
100
AcDbEntity
  8
0
100
AcDbLine
 10
287.1647224205
 20
314.3673470522
 30
0.0
 11
287.1647224205
 21
319.8673506451091
 31
0.0
  0
LINE
  5
67B
330
1F
100
AcDbEntity
  8
0
  6
Continuous
 62
     0
370
     0
100
AcDbLine
 10
91.79942868919999
 20
161.3631404763
 30
0.0
 11
91.79942868919999
 21
14.83310674270001
 31
0.0
  0
LINE
  5
67C
330
1F
100
AcDbEntity
  8
0
  6
Continuous
 62
     0
370
     0
100
AcDbLine
 10
91.79942868919999
 20
14.83310674270001
 30
0.0
 11
992.7994286891999
 21
14.83310674270001
 31
0.0
  0
LINE
  5
67D
330
1F
100
AcDbEntity
  8
0
  6
Continuous
 62
     0
370
     0
100
AcDbLine
 10
924.7994286892
 20
14.83310674270001
 30
0.0
 11
924.7994286892
 21
161.3631404763
 31
0.0
  0
LINE
  5
67E
330
1F
100
AcDbEntity
  8
0
  6
Continuous
 62
     0
370
     0
100
AcDbLine
 10
992.7994286891999
 20
161.3631404763
 30
0.0
 11
91.79942868919999
 21
161.3631404763
 31
0.0
  0
LINE
  5
67F
330
1F
100
AcDbEntity
  8
0
  6
Continuous
 62
     0
370
     0
100
AcDbLine
 10
176.7994286891999
 20
161.3631404763
 30
0.0
 11
176.7994286891999
 21
14.83310674270001
 31
0.0
  0
LINE
  5
680
330
1F
100
AcDbEntity
  8
0
  6
Continuous
 62
     0
370
     0
100
AcDbLine
 10
244.7994286892
 20
161.3631404763
 30
0.0
 11
244.7994286892
 21
14.83310674270001
 31
0.0
  0
LINE
  5
681
330
1F
100
AcDbEntity
  8
0
  6
Continuous
 62
     0
370
     0
100
AcDbLine
 10
312.7994286892
 20
161.3631404763
 30
0.0
 11
312.7994286892
 21
14.83310674270001
 31
0.0
  0
LINE
  5
682
330
1F
100
AcDbEntity
  8
0
  6
Continuous
 62
     0
370
     0
100
AcDbLine
 10
380.7994286892
 20
161.3631404763
 30
0.0
 11
380.7994286892
 21
14.83310674270001
 31
0.0
  0
LINE
  5
683
330
1F
100
AcDbEntity
  8
0
  6
Continuous
 62
     0
370
     0
100
AcDbLine
 10
448.7994286892
 20
161.3631404763
 30
0.0
 11
448.7994286892
 21
14.83310674270001
 31
0.0
  0
LINE
  5
684
330
1F
100
AcDbEntity
  8
0
  6
Continuous
 62
     0
370
     0
100
AcDbLine
 10
516.7994286892
 20
161.3631404763
 30
0.0
 11
516.7994286892
 21
14.83310674270001
 31
0.0
  0
LINE
  5
685
330
1F
100
AcDbEntity
  8
0
  6
Continuous
 62
     0
370
     0
100
AcDbLine
 10
584.7994286891998
 20
161.3631404763
 30
0.0
 11
584.7994286891998
 21
14.83310674270001
 31
0.0
  0
LINE
  5
686
330
1F
100
AcDbEntity
  8
0
  6
Continuous
 62
     0
370
     0
100
AcDbLine
 10
652.7994286892
 20
161.3631404763
 30
0.0
 11
652.7994286892
 21
14.83310674270001
 31
0.0
  0
LINE
  5
687
330
1F
100
AcDbEntity
  8
0
  6
Continuous
 62
     0
370
     0
100
AcDbLine
 10
720.7994286892
 20
161.3631404763
 30
0.0
 11
720.7994286892
 21
14.83310674270001
 31
0.0
  0
LINE
  5
688
330
1F
100
AcDbEntity
  8
0
  6
Continuous
 62
     0
370
     0
100
AcDbLine
 10
788.7994286891998
 20
161.3631404763
 30
0.0
 11
788.7994286891998
 21
14.83310674270001
 31
0.0
  0
LINE
  5
689
330
1F
100
AcDbEntity
  8
0
  6
Continuous
 62
     0
370
     0
100
AcDbLine
 10
856.7994286892
 20
161.3631404763
 30
0.0
 11
856.7994286892
 21
14.83310674270001
 31
0.0
  0
LINE
  5
68A
330
1F
100
AcDbEntity
  8
0
  6
Continuous
 62
     0
370
     0
100
AcDbLine
 10
91.79942868919999
 20
137.2331067427
 30
0.0
 11
992.7994286891999
 21
137.2331067427
 31
0.0
  0
LINE
  5
68B
330
1F
100
AcDbEntity
  8
0
  6
Continuous
 62
     0
370
     0
100
AcDbLine
 10
91.79942868919999
 20
116.8331067427
 30
0.0
 11
992.7994286891999
 21
116.8331067427
 31
0.0
  0
LINE
  5
68C
330
1F
100
AcDbEntity
  8
0
  6
Continuous
 62
     0
370
     0
100
AcDbLine
 10
91.79942868919999
 20
96.43310674270001
 30
0.0
 11
992.7994286891999
 21
96.43310674270001
 31
0.0
  0
LINE
  5
68D
330
1F
100
AcDbEntity
  8
0
  6
Continuous
 62
     0
370
     0
100
AcDbLine
 10
91.79942868919999
 20
76.03310674270002
 30
0.0
 11
992.7994286891999
 21
76.03310674270002
 31
0.0
  0
LINE
  5
68E
330
1F
100
AcDbEntity
  8
0
  6
Continuous
 62
     0
370
     0
100
AcDbLine
 10
91.79942868919999
 20
55.63310674269999
 30
0.0
 11
992.7994286891999
 21
55.63310674269999
 31
0.0
  0
LINE
  5
68F
330
1F
100
AcDbEntity
  8
0
  6
Continuous
 62
     0
370
     0
100
AcDbLine
 10
91.79942868919999
 20
35.2331067427
 30
0.0
 11
992.7994286891999
 21
35.2331067427
 31
0.0
  0
MTEXT
  5
690
330
1F
100
AcDbEntity
  8
0
  6
Continuous
 62
     0
370
     0
100
AcDbMText
 10
101.2963819531
 20
154.1260278776
 30
0.0
 40
9.895416666699999
 41
0.0
 71
     1
 72
     1
  1
\U+884c\U+7a0bStroke
  7
SLDTEXTSTYLE1
 73
     1
 44
1.0
1001
ACAD
1000
MTEXTBEGIN
1070
    73
1070
     1
1070
    44
1040
1.0
1070
    74
1070
     0
1000
MTEXTEND
  0
MTEXT
  5
691
330
1F
100
AcDbEntity
  8
0
  6
Continuous
 62
     0
370
     0
100
AcDbMText
 10
265.610261998
 20
155.2982335327
 30
0.0
 40
11.9
 41
0.0
 71
     1
 72
     1
  1
100
  7
SLDTEXTSTYLE1
 73
     1
 44
1.0
1001
ACAD
1000
MTEXTBEGIN
1070
    73
1070
     1
1070
    44
1040
1.0
1070
    74
1070
     0
1000
MTEXTEND
  0
MTEXT
  5
692
330
1F
100
AcDbEntity
  8
0
  6
Continuous
 62
     0
370
     0
100
AcDbMText
 10
333.610261998
 20
155.2982335327
 30
0.0
 40
11.9
 41
0.0
 71
     1
 72
     1
  1
150
  7
SLDTEXTSTYLE1
 73
     1
 44
1.0
1001
ACAD
1000
MTEXTBEGIN
1070
    73
1070
     1
1070
    44
1040
1.0
1070
    74
1070
     0
1000
MTEXTEND
  0
MTEXT
  5
693
330
1F
100
AcDbEntity
  8
0
  6
Continuous
 62
     0
370
     0
100
AcDbMText
 10
401.6102619979999
 20
155.2982335327
 30
0.0
 40
11.9
 41
0.0
 71
     1
 72
     1
  1
200
  7
SLDTEXTSTYLE1
 73
     1
 44
1.0
1001
ACAD
1000
MTEXTBEGIN
1070
    73
1070
     1
1070
    44
1040
1.0
1070
    74
1070
     0
1000
MTEXTEND
  0
MTEXT
  5
694
330
1F
100
AcDbEntity
  8
0
  6
Continuous
 62
     0
370
     0
100
AcDbMText
 10
469.6102619979998
 20
155.2982335327
 30
0.0
 40
11.9
 41
0.0
 71
     1
 72
     1
  1
250
  7
SLDTEXTSTYLE1
 73
     1
 44
1.0
1001
ACAD
1000
MTEXTBEGIN
1070
    73
1070
     1
1070
    44
1040
1.0
1070
    74
1070
     0
1000
MTEXTEND
  0
MTEXT
  5
695
330
1F
100
AcDbEntity
  8
0
  6
Continuous
 62
     0
370
     0
100
AcDbMText
 10
537.6102619980001
 20
155.2982335327
 30
0.0
 40
11.9
 41
0.0
 71
     1
 72
     1
  1
300
  7
SLDTEXTSTYLE1
 73
     1
 44
1.0
1001
ACAD
1000
MTEXTBEGIN
1070
    73
1070
     1
1070
    44
1040
1.0
1070
    74
1070
     0
1000
MTEXTEND
  0
MTEXT
  5
696
330
1F
100
AcDbEntity
  8
0
  6
Continuous
 62
     0
370
     0
100
AcDbMText
 10
605.6102619979998
 20
155.2982335327
 30
0.0
 40
11.9
 41
0.0
 71
     1
 72
     1
  1
350
  7
SLDTEXTSTYLE1
 73
     1
 44
1.0
1001
ACAD
1000
MTEXTBEGIN
1070
    73
1070
     1
1070
    44
1040
1.0
1070
    74
1070
     0
1000
MTEXTEND
  0
MTEXT
  5
697
330
1F
100
AcDbEntity
  8
0
  6
Continuous
 62
     0
370
     0
100
AcDbMText
 10
673.6102619979998
 20
155.2982335327
 30
0.0
 40
11.9
 41
0.0
 71
     1
 72
     1
  1
400
  7
SLDTEXTSTYLE1
 73
     1
 44
1.0
1001
ACAD
1000
MTEXTBEGIN
1070
    73
1070
     1
1070
    44
1040
1.0
1070
    74
1070
     0
1000
MTEXTEND
  0
MTEXT
  5
698
330
1F
100
AcDbEntity
  8
0
  6
Continuous
 62
     0
370
     0
100
AcDbMText
 10
741.6102619979998
 20
155.2982335327
 30
0.0
 40
11.9
 41
0.0
 71
     1
 72
     1
  1
450
  7
SLDTEXTSTYLE1
 73
     1
 44
1.0
1001
ACAD
1000
MTEXTBEGIN
1070
    73
1070
     1
1070
    44
1040
1.0
1070
    74
1070
     0
1000
MTEXTEND
  0
MTEXT
  5
699
330
1F
100
AcDbEntity
  8
0
  6
Continuous
 62
     0
370
     0
100
AcDbMText
 10
809.6102619979998
 20
155.2982335327
 30
0.0
 40
11.9
 41
0.0
 71
     1
 72
     1
  1
500
  7
SLDTEXTSTYLE1
 73
     1
 44
1.0
1001
ACAD
1000
MTEXTBEGIN
1070
    73
1070
     1
1070
    44
1040
1.0
1070
    74
1070
     0
1000
MTEXTEND
  0
MTEXT
  5
69A
330
1F
100
AcDbEntity
  8
0
  6
Continuous
 62
     0
370
     0
100
AcDbMText
 10
877.6102619979997
 20
155.2982335327
 30
0.0
 40
11.9
 41
0.0
 71
     1
 72
     1
  1
550
  7
SLDTEXTSTYLE1
 73
     1
 44
1.0
1001
ACAD
1000
MTEXTBEGIN
1070
    73
1070
     1
1070
    44
1040
1.0
1070
    74
1070
     0
1000
MTEXTEND
  0
MTEXT
  5
69B
330
1F
100
AcDbEntity
  8
0
  6
Continuous
 62
     0
370
     0
100
AcDbMText
 10
945.6102619980001
 20
155.2982335327
 30
0.0
 40
11.9
 41
0.0
 71
     1
 72
     1
  1
600
  7
SLDTEXTSTYLE1
 73
     1
 44
1.0
1001
ACAD
1000
MTEXTBEGIN
1070
    73
1070
     1
1070
    44
1040
1.0
1070
    74
1070
     0
1000
MTEXTEND
  0
MTEXT
  5
69C
330
1F
100
AcDbEntity
  8
0
  6
Continuous
 62
     0
370
     0
100
AcDbMText
 10
130.1757482559
 20
133.0332166659
 30
0.0
 40
11.9
 41
0.0
 71
     1
 72
     1
  1
S
  7
SLDTEXTSTYLE1
 73
     1
 44
1.0
1001
ACAD
1000
MTEXTBEGIN
1070
    73
1070
     1
1070
    44
1040
1.0
1070
    74
1070
     0
1000
MTEXTEND
  0
MTEXT
  5
69D
330
1F
100
AcDbEntity
  8
0
  6
Continuous
 62
     0
370
     0
100
AcDbMText
 10
265.610261998
 20
133.0332166659
 30
0.0
 40
11.9
 41
0.0
 71
     1
 72
     1
  1
272
  7
SLDTEXTSTYLE1
 73
     1
 44
1.0
1001
ACAD
1000
MTEXTBEGIN
1070
    73
1070
     1
1070
    44
1040
1.0
1070
    74
1070
     0
1000
MTEXTEND
  0
MTEXT
  5
69E
330
1F
100
AcDbEntity
  8
0
  6
Continuous
 62
     0
370
     0
100
AcDbMText
 10
333.610261998
 20
133.0332166659
 30
0.0
 40
11.9
 41
0.0
 71
     1
 72
     1
  1
322
  7
SLDTEXTSTYLE1
 73
     1
 44
1.0
1001
ACAD
1000
MTEXTBEGIN
1070
    73
1070
     1
1070
    44
1040
1.0
1070
    74
1070
     0
1000
MTEXTEND
  0
MTEXT
  5
69F
330
1F
100
AcDbEntity
  8
0
  6
Continuous
 62
     0
370
     0
100
AcDbMText
 10
401.6102619979999
 20
133.0332166659
 30
0.0
 40
11.9
 41
0.0
 71
     1
 72
     1
  1
372
  7
SLDTEXTSTYLE1
 73
     1
 44
1.0
1001
ACAD
1000
MTEXTBEGIN
1070
    73
1070
     1
1070
    44
1040
1.0
1070
    74
1070
     0
1000
MTEXTEND
  0
MTEXT
  5
6A0
330
1F
100
AcDbEntity
  8
0
  6
Continuous
 62
     0
370
     0
100
AcDbMText
 10
469.6102619979998
 20
133.0332166659
 30
0.0
 40
11.9
 41
0.0
 71
     1
 72
     1
  1
422
  7
SLDTEXTSTYLE1
 73
     1
 44
1.0
1001
ACAD
1000
MTEXTBEGIN
1070
    73
1070
     1
1070
    44
1040
1.0
1070
    74
1070
     0
1000
MTEXTEND
  0
MTEXT
  5
6A1
330
1F
100
AcDbEntity
  8
0
  6
Continuous
 62
     0
370
     0
100
AcDbMText
 10
537.6102619980001
 20
133.0332166659
 30
0.0
 40
11.9
 41
0.0
 71
     1
 72
     1
  1
472
  7
SLDTEXTSTYLE1
 73
     1
 44
1.0
1001
ACAD
1000
MTEXTBEGIN
1070
    73
1070
     1
1070
    44
1040
1.0
1070
    74
1070
     0
1000
MTEXTEND
  0
MTEXT
  5
6A2
330
1F
100
AcDbEntity
  8
0
  6
Continuous
 62
     0
370
     0
100
AcDbMText
 10
605.6102619979998
 20
133.0332166659
 30
0.0
 40
11.9
 41
0.0
 71
     1
 72
     1
  1
522
  7
SLDTEXTSTYLE1
 73
     1
 44
1.0
1001
ACAD
1000
MTEXTBEGIN
1070
    73
1070
     1
1070
    44
1040
1.0
1070
    74
1070
     0
1000
MTEXTEND
  0
MTEXT
  5
6A3
330
1F
100
AcDbEntity
  8
0
  6
Continuous
 62
     0
370
     0
100
AcDbMText
 10
673.6102619979998
 20
133.0332166659
 30
0.0
 40
11.9
 41
0.0
 71
     1
 72
     1
  1
572
  7
SLDTEXTSTYLE1
 73
     1
 44
1.0
1001
ACAD
1000
MTEXTBEGIN
1070
    73
1070
     1
1070
    44
1040
1.0
1070
    74
1070
     0
1000
MTEXTEND
  0
MTEXT
  5
6A4
330
1F
100
AcDbEntity
  8
0
  6
Continuous
 62
     0
370
     0
100
AcDbMText
 10
741.6102619979998
 20
133.0332166659
 30
0.0
 40
11.9
 41
0.0
 71
     1
 72
     1
  1
622
  7
SLDTEXTSTYLE1
 73
     1
 44
1.0
1001
ACAD
1000
MTEXTBEGIN
1070
    73
1070
     1
1070
    44
1040
1.0
1070
    74
1070
     0
1000
MTEXTEND
  0
MTEXT
  5
6A5
330
1F
100
AcDbEntity
  8
0
  6
Continuous
 62
     0
370
     0
100
AcDbMText
 10
809.6102619979998
 20
133.0332166659
 30
0.0
 40
11.9
 41
0.0
 71
     1
 72
     1
  1
672
  7
SLDTEXTSTYLE1
 73
     1
 44
1.0
1001
ACAD
1000
MTEXTBEGIN
1070
    73
1070
     1
1070
    44
1040
1.0
1070
    74
1070
     0
1000
MTEXTEND
  0
MTEXT
  5
6A6
330
1F
100
AcDbEntity
  8
0
  6
Continuous
 62
     0
370
     0
100
AcDbMText
 10
877.6102619979997
 20
133.0332166659
 30
0.0
 40
11.9
 41
0.0
 71
     1
 72
     1
  1
722
  7
SLDTEXTSTYLE1
 73
     1
 44
1.0
1001
ACAD
1000
MTEXTBEGIN
1070
    73
1070
     1
1070
    44
1040
1.0
1070
    74
1070
     0
1000
MTEXTEND
  0
MTEXT
  5
6A7
330
1F
100
AcDbEntity
  8
0
  6
Continuous
 62
     0
370
     0
100
AcDbMText
 10
945.6102619980001
 20
133.0332166659
 30
0.0
 40
11.9
 41
0.0
 71
     1
 72
     1
  1
772
  7
SLDTEXTSTYLE1
 73
     1
 44
1.0
1001
ACAD
1000
MTEXTBEGIN
1070
    73
1070
     1
1070
    44
1040
1.0
1070
    74
1070
     0
1000
MTEXTEND
  0
MTEXT
  5
6A8
330
1F
100
AcDbEntity
  8
0
  6
Continuous
 62
     0
370
     0
100
AcDbMText
 10
130.812067653
 20
112.6332166659
 30
0.0
 40
11.9
 41
0.0
 71
     1
 72
     1
  1
L
  7
SLDTEXTSTYLE1
 73
     1
 44
1.0
1001
ACAD
1000
MTEXTBEGIN
1070
    73
1070
     1
1070
    44
1040
1.0
1070
    74
1070
     0
1000
MTEXTEND
  0
MTEXT
  5
6A9
330
1F
100
AcDbEntity
  8
0
  6
Continuous
 62
     0
370
     0
100
AcDbMText
 10
265.610261998
 20
112.6332166659
 30
0.0
 40
11.9
 41
0.0
 71
     1
 72
     1
  1
222
  7
SLDTEXTSTYLE1
 73
     1
 44
1.0
1001
ACAD
1000
MTEXTBEGIN
1070
    73
1070
     1
1070
    44
1040
1.0
1070
    74
1070
     0
1000
MTEXTEND
  0
MTEXT
  5
6AA
330
1F
100
AcDbEntity
  8
0
  6
Continuous
 62
     0
370
     0
100
AcDbMText
 10
333.610261998
 20
112.6332166659
 30
0.0
 40
11.9
 41
0.0
 71
     1
 72
     1
  1
272
  7
SLDTEXTSTYLE1
 73
     1
 44
1.0
1001
ACAD
1000
MTEXTBEGIN
1070
    73
1070
     1
1070
    44
1040
1.0
1070
    74
1070
     0
1000
MTEXTEND
  0
MTEXT
  5
6AB
330
1F
100
AcDbEntity
  8
0
  6
Continuous
 62
     0
370
     0
100
AcDbMText
 10
401.6102619979999
 20
112.6332166659
 30
0.0
 40
11.9
 41
0.0
 71
     1
 72
     1
  1
322
  7
SLDTEXTSTYLE1
 73
     1
 44
1.0
1001
ACAD
1000
MTEXTBEGIN
1070
    73
1070
     1
1070
    44
1040
1.0
1070
    74
1070
     0
1000
MTEXTEND
  0
MTEXT
  5
6AC
330
1F
100
AcDbEntity
  8
0
  6
Continuous
 62
     0
370
     0
100
AcDbMText
 10
469.6102619979998
 20
112.6332166659
 30
0.0
 40
11.9
 41
0.0
 71
     1
 72
     1
  1
372
  7
SLDTEXTSTYLE1
 73
     1
 44
1.0
1001
ACAD
1000
MTEXTBEGIN
1070
    73
1070
     1
1070
    44
1040
1.0
1070
    74
1070
     0
1000
MTEXTEND
  0
MTEXT
  5
6AD
330
1F
100
AcDbEntity
  8
0
  6
Continuous
 62
     0
370
     0
100
AcDbMText
 10
537.6102619980001
 20
112.6332166659
 30
0.0
 40
11.9
 41
0.0
 71
     1
 72
     1
  1
422
  7
SLDTEXTSTYLE1
 73
     1
 44
1.0
1001
ACAD
1000
MTEXTBEGIN
1070
    73
1070
     1
1070
    44
1040
1.0
1070
    74
1070
     0
1000
MTEXTEND
  0
MTEXT
  5
6AE
330
1F
100
AcDbEntity
  8
0
  6
Continuous
 62
     0
370
     0
100
AcDbMText
 10
605.6102619979998
 20
112.6332166659
 30
0.0
 40
11.9
 41
0.0
 71
     1
 72
     1
  1
472
  7
SLDTEXTSTYLE1
 73
     1
 44
1.0
1001
ACAD
1000
MTEXTBEGIN
1070
    73
1070
     1
1070
    44
1040
1.0
1070
    74
1070
     0
1000
MTEXTEND
  0
MTEXT
  5
6AF
330
1F
100
AcDbEntity
  8
0
  6
Continuous
 62
     0
370
     0
100
AcDbMText
 10
673.6102619979998
 20
112.6332166659
 30
0.0
 40
11.9
 41
0.0
 71
     1
 72
     1
  1
522
  7
SLDTEXTSTYLE1
 73
     1
 44
1.0
1001
ACAD
1000
MTEXTBEGIN
1070
    73
1070
     1
1070
    44
1040
1.0
1070
    74
1070
     0
1000
MTEXTEND
  0
MTEXT
  5
6B0
330
1F
100
AcDbEntity
  8
0
  6
Continuous
 62
     0
370
     0
100
AcDbMText
 10
741.6102619979998
 20
112.6332166659
 30
0.0
 40
11.9
 41
0.0
 71
     1
 72
     1
  1
572
  7
SLDTEXTSTYLE1
 73
     1
 44
1.0
1001
ACAD
1000
MTEXTBEGIN
1070
    73
1070
     1
1070
    44
1040
1.0
1070
    74
1070
     0
1000
MTEXTEND
  0
MTEXT
  5
6B1
330
1F
100
AcDbEntity
  8
0
  6
Continuous
 62
     0
370
     0
100
AcDbMText
 10
809.6102619979998
 20
112.6332166659
 30
0.0
 40
11.9
 41
0.0
 71
     1
 72
     1
  1
622
  7
SLDTEXTSTYLE1
 73
     1
 44
1.0
1001
ACAD
1000
MTEXTBEGIN
1070
    73
1070
     1
1070
    44
1040
1.0
1070
    74
1070
     0
1000
MTEXTEND
  0
MTEXT
  5
6B2
330
1F
100
AcDbEntity
  8
0
  6
Continuous
 62
     0
370
     0
100
AcDbMText
 10
877.6102619979997
 20
112.6332166659
 30
0.0
 40
11.9
 41
0.0
 71
     1
 72
     1
  1
672
  7
SLDTEXTSTYLE1
 73
     1
 44
1.0
1001
ACAD
1000
MTEXTBEGIN
1070
    73
1070
     1
1070
    44
1040
1.0
1070
    74
1070
     0
1000
MTEXTEND
  0
MTEXT
  5
6B3
330
1F
100
AcDbEntity
  8
0
  6
Continuous
 62
     0
370
     0
100
AcDbMText
 10
945.6102619980001
 20
112.6332166659
 30
0.0
 40
11.9
 41
0.0
 71
     1
 72
     1
  1
722
  7
SLDTEXTSTYLE1
 73
     1
 44
1.0
1001
ACAD
1000
MTEXTBEGIN
1070
    73
1070
     1
1070
    44
1040
1.0
1070
    74
1070
     0
1000
MTEXTEND
  0
MTEXT
  5
6B4
330
1F
100
AcDbEntity
  8
0
  6
Continuous
 62
     0
370
     0
100
AcDbMText
 10
128.4320677378
 20
92.23321666590001
 30
0.0
 40
11.9
 41
0.0
 71
     1
 72
     1
  1
A
  7
SLDTEXTSTYLE1
 73
     1
 44
1.0
1001
ACAD
1000
MTEXTBEGIN
1070
    73
1070
     1
1070
    44
1040
1.0
1070
    74
1070
     0
1000
MTEXTEND
  0
MTEXT
  5
6B5
330
1F
100
AcDbEntity
  8
0
  6
Continuous
 62
     0
370
     0
100
AcDbMText
 10
274.4030396602
 20
92.23321666590001
 30
0.0
 40
11.9
 41
0.0
 71
     1
 72
     1
  1
1
  7
SLDTEXTSTYLE1
 73
     1
 44
1.0
1001
ACAD
1000
MTEXTBEGIN
1070
    73
1070
     1
1070
    44
1040
1.0
1070
    74
1070
     0
1000
MTEXTEND
  0
MTEXT
  5
6B6
330
1F
100
AcDbEntity
  8
0
  6
Continuous
 62
     0
370
     0
100
AcDbMText
 10
342.4030396602
 20
92.23321666590001
 30
0.0
 40
11.9
 41
0.0
 71
     1
 72
     1
  1
2
  7
SLDTEXTSTYLE1
 73
     1
 44
1.0
1001
ACAD
1000
MTEXTBEGIN
1070
    73
1070
     1
1070
    44
1040
1.0
1070
    74
1070
     0
1000
MTEXTEND
  0
MTEXT
  5
6B7
330
1F
100
AcDbEntity
  8
0
  6
Continuous
 62
     0
370
     0
100
AcDbMText
 10
410.4030396601999
 20
92.23321666590001
 30
0.0
 40
11.9
 41
0.0
 71
     1
 72
     1
  1
2
  7
SLDTEXTSTYLE1
 73
     1
 44
1.0
1001
ACAD
1000
MTEXTBEGIN
1070
    73
1070
     1
1070
    44
1040
1.0
1070
    74
1070
     0
1000
MTEXTEND
  0
MTEXT
  5
6B8
330
1F
100
AcDbEntity
  8
0
  6
Continuous
 62
     0
370
     0
100
AcDbMText
 10
478.4030396601998
 20
92.23321666590001
 30
0.0
 40
11.9
 41
0.0
 71
     1
 72
     1
  1
3
  7
SLDTEXTSTYLE1
 73
     1
 44
1.0
1001
ACAD
1000
MTEXTBEGIN
1070
    73
1070
     1
1070
    44
1040
1.0
1070
    74
1070
     0
1000
MTEXTEND
  0
MTEXT
  5
6B9
330
1F
100
AcDbEntity
  8
0
  6
Continuous
 62
     0
370
     0
100
AcDbMText
 10
546.4030396601999
 20
92.23321666590001
 30
0.0
 40
11.9
 41
0.0
 71
     1
 72
     1
  1
3
  7
SLDTEXTSTYLE1
 73
     1
 44
1.0
1001
ACAD
1000
MTEXTBEGIN
1070
    73
1070
     1
1070
    44
1040
1.0
1070
    74
1070
     0
1000
MTEXTEND
  0
MTEXT
  5
6BA
330
1F
100
AcDbEntity
  8
0
  6
Continuous
 62
     0
370
     0
100
AcDbMText
 10
614.4030396601998
 20
92.23321666590001
 30
0.0
 40
11.9
 41
0.0
 71
     1
 72
     1
  1
4
  7
SLDTEXTSTYLE1
 73
     1
 44
1.0
1001
ACAD
1000
MTEXTBEGIN
1070
    73
1070
     1
1070
    44
1040
1.0
1070
    74
1070
     0
1000
MTEXTEND
  0
MTEXT
  5
6BB
330
1F
100
AcDbEntity
  8
0
  6
Continuous
 62
     0
370
     0
100
AcDbMText
 10
682.4030396601997
 20
92.23321666590001
 30
0.0
 40
11.9
 41
0.0
 71
     1
 72
     1
  1
4
  7
SLDTEXTSTYLE1
 73
     1
 44
1.0
1001
ACAD
1000
MTEXTBEGIN
1070
    73
1070
     1
1070
    44
1040
1.0
1070
    74
1070
     0
1000
MTEXTEND
  0
MTEXT
  5
6BC
330
1F
100
AcDbEntity
  8
0
  6
Continuous
 62
     0
370
     0
100
AcDbMText
 10
750.4030396601997
 20
92.23321666590001
 30
0.0
 40
11.9
 41
0.0
 71
     1
 72
     1
  1
5
  7
SLDTEXTSTYLE1
 73
     1
 44
1.0
1001
ACAD
1000
MTEXTBEGIN
1070
    73
1070
     1
1070
    44
1040
1.0
1070
    74
1070
     0
1000
MTEXTEND
  0
MTEXT
  5
6BD
330
1F
100
AcDbEntity
  8
0
  6
Continuous
 62
     0
370
     0
100
AcDbMText
 10
818.4030396601999
 20
92.23321666590001
 30
0.0
 40
11.9
 41
0.0
 71
     1
 72
     1
  1
5
  7
SLDTEXTSTYLE1
 73
     1
 44
1.0
1001
ACAD
1000
MTEXTBEGIN
1070
    73
1070
     1
1070
    44
1040
1.0
1070
    74
1070
     0
1000
MTEXTEND
  0
MTEXT
  5
6BE
330
1F
100
AcDbEntity
  8
0
  6
Continuous
 62
     0
370
     0
100
AcDbMText
 10
886.4030396602
 20
92.23321666590001
 30
0.0
 40
11.9
 41
0.0
 71
     1
 72
     1
  1
6
  7
SLDTEXTSTYLE1
 73
     1
 44
1.0
1001
ACAD
1000
MTEXTBEGIN
1070
    73
1070
     1
1070
    44
1040
1.0
1070
    74
1070
     0
1000
MTEXTEND
  0
MTEXT
  5
6BF
330
1F
100
AcDbEntity
  8
0
  6
Continuous
 62
     0
370
     0
100
AcDbMText
 10
954.4030396602
 20
92.23321666590001
 30
0.0
 40
11.9
 41
0.0
 71
     1
 72
     1
  1
6
  7
SLDTEXTSTYLE1
 73
     1
 44
1.0
1001
ACAD
1000
MTEXTBEGIN
1070
    73
1070
     1
1070
    44
1040
1.0
1070
    74
1070
     0
1000
MTEXTEND
  0
MTEXT
  5
6C0
330
1F
100
AcDbEntity
  8
0
  6
Continuous
 62
     0
370
     0
100
AcDbMText
 10
129.696442767
 20
71.8332166659
 30
0.0
 40
11.9
 41
0.0
 71
     1
 72
     1
  1
B
  7
SLDTEXTSTYLE1
 73
     1
 44
1.0
1001
ACAD
1000
MTEXTBEGIN
1070
    73
1070
     1
1070
    44
1040
1.0
1070
    74
1070
     0
1000
MTEXTEND
  0
MTEXT
  5
6C1
330
1F
100
AcDbEntity
  8
0
  6
Continuous
 62
     0
370
     0
100
AcDbMText
 10
270.0066506312
 20
71.8332166659
 30
0.0
 40
11.9
 41
0.0
 71
     1
 72
     1
  1
77
  7
SLDTEXTSTYLE1
 73
     1
 44
1.0
1001
ACAD
1000
MTEXTBEGIN
1070
    73
1070
     1
1070
    44
1040
1.0
1070
    74
1070
     0
1000
MTEXTEND
  0
MTEXT
  5
6C2
330
1F
100
AcDbEntity
  8
0
  6
Continuous
 62
     0
370
     0
100
AcDbMText
 10
338.0066506312
 20
71.8332166659
 30
0.0
 40
11.9
 41
0.0
 71
     1
 72
     1
  1
27
  7
SLDTEXTSTYLE1
 73
     1
 44
1.0
1001
ACAD
1000
MTEXTBEGIN
1070
    73
1070
     1
1070
    44
1040
1.0
1070
    74
1070
     0
1000
MTEXTEND
  0
MTEXT
  5
6C3
330
1F
100
AcDbEntity
  8
0
  6
Continuous
 62
     0
370
     0
100
AcDbMText
 10
406.0066506312002
 20
71.8332166659
 30
0.0
 40
11.9
 41
0.0
 71
     1
 72
     1
  1
77
  7
SLDTEXTSTYLE1
 73
     1
 44
1.0
1001
ACAD
1000
MTEXTBEGIN
1070
    73
1070
     1
1070
    44
1040
1.0
1070
    74
1070
     0
1000
MTEXTEND
  0
MTEXT
  5
6C4
330
1F
100
AcDbEntity
  8
0
  6
Continuous
 62
     0
370
     0
100
AcDbMText
 10
474.0066506312
 20
71.8332166659
 30
0.0
 40
11.9
 41
0.0
 71
     1
 72
     1
  1
27
  7
SLDTEXTSTYLE1
 73
     1
 44
1.0
1001
ACAD
1000
MTEXTBEGIN
1070
    73
1070
     1
1070
    44
1040
1.0
1070
    74
1070
     0
1000
MTEXTEND
  0
MTEXT
  5
6C5
330
1F
100
AcDbEntity
  8
0
  6
Continuous
 62
     0
370
     0
100
AcDbMText
 10
542.0066506311997
 20
71.8332166659
 30
0.0
 40
11.9
 41
0.0
 71
     1
 72
     1
  1
77
  7
SLDTEXTSTYLE1
 73
     1
 44
1.0
1001
ACAD
1000
MTEXTBEGIN
1070
    73
1070
     1
1070
    44
1040
1.0
1070
    74
1070
     0
1000
MTEXTEND
  0
MTEXT
  5
6C6
330
1F
100
AcDbEntity
  8
0
  6
Continuous
 62
     0
370
     0
100
AcDbMText
 10
610.0066506311996
 20
71.8332166659
 30
0.0
 40
11.9
 41
0.0
 71
     1
 72
     1
  1
27
  7
SLDTEXTSTYLE1
 73
     1
 44
1.0
1001
ACAD
1000
MTEXTBEGIN
1070
    73
1070
     1
1070
    44
1040
1.0
1070
    74
1070
     0
1000
MTEXTEND
  0
MTEXT
  5
6C7
330
1F
100
AcDbEntity
  8
0
  6
Continuous
 62
     0
370
     0
100
AcDbMText
 10
678.0066506311998
 20
71.8332166659
 30
0.0
 40
11.9
 41
0.0
 71
     1
 72
     1
  1
77
  7
SLDTEXTSTYLE1
 73
     1
 44
1.0
1001
ACAD
1000
MTEXTBEGIN
1070
    73
1070
     1
1070
    44
1040
1.0
1070
    74
1070
     0
1000
MTEXTEND
  0
MTEXT
  5
6C8
330
1F
100
AcDbEntity
  8
0
  6
Continuous
 62
     0
370
     0
100
AcDbMText
 10
746.0066506311997
 20
71.8332166659
 30
0.0
 40
11.9
 41
0.0
 71
     1
 72
     1
  1
27
  7
SLDTEXTSTYLE1
 73
     1
 44
1.0
1001
ACAD
1000
MTEXTBEGIN
1070
    73
1070
     1
1070
    44
1040
1.0
1070
    74
1070
     0
1000
MTEXTEND
  0
MTEXT
  5
6C9
330
1F
100
AcDbEntity
  8
0
  6
Continuous
 62
     0
370
     0
100
AcDbMText
 10
814.0066506311999
 20
71.8332166659
 30
0.0
 40
11.9
 41
0.0
 71
     1
 72
     1
  1
77
  7
SLDTEXTSTYLE1
 73
     1
 44
1.0
1001
ACAD
1000
MTEXTBEGIN
1070
    73
1070
     1
1070
    44
1040
1.0
1070
    74
1070
     0
1000
MTEXTEND
  0
MTEXT
  5
6CA
330
1F
100
AcDbEntity
  8
0
  6
Continuous
 62
     0
370
     0
100
AcDbMText
 10
882.0066506311999
 20
71.8332166659
 30
0.0
 40
11.9
 41
0.0
 71
     1
 72
     1
  1
27
  7
SLDTEXTSTYLE1
 73
     1
 44
1.0
1001
ACAD
1000
MTEXTBEGIN
1070
    73
1070
     1
1070
    44
1040
1.0
1070
    74
1070
     0
1000
MTEXTEND
  0
MTEXT
  5
6CB
330
1F
100
AcDbEntity
  8
0
  6
Continuous
 62
     0
370
     0
100
AcDbMText
 10
950.0066506311998
 20
71.8332166659
 30
0.0
 40
11.9
 41
0.0
 71
     1
 72
     1
  1
77
  7
SLDTEXTSTYLE1
 73
     1
 44
1.0
1001
ACAD
1000
MTEXTBEGIN
1070
    73
1070
     1
1070
    44
1040
1.0
1070
    74
1070
     0
1000
MTEXTEND
  0
MTEXT
  5
6CC
330
1F
100
AcDbEntity
  8
0
  6
Continuous
 62
     0
370
     0
100
AcDbMText
 10
128.4320677378
 20
51.43321666589999
 30
0.0
 40
11.9
 41
0.0
 71
     1
 72
     1
  1
N
  7
SLDTEXTSTYLE1
 73
     1
 44
1.0
1001
ACAD
1000
MTEXTBEGIN
1070
    73
1070
     1
1070
    44
1040
1.0
1070
    74
1070
     0
1000
MTEXTEND
  0
MTEXT
  5
6CD
330
1F
100
AcDbEntity
  8
0
  6
Continuous
 62
     0
370
     0
100
AcDbMText
 10
274.4030396602
 20
51.43321666589999
 30
0.0
 40
11.9
 41
0.0
 71
     1
 72
     1
  1
6
  7
SLDTEXTSTYLE1
 73
     1
 44
1.0
1001
ACAD
1000
MTEXTBEGIN
1070
    73
1070
     1
1070
    44
1040
1.0
1070
    74
1070
     0
1000
MTEXTEND
  0
MTEXT
  5
6CE
330
1F
100
AcDbEntity
  8
0
  6
Continuous
 62
     0
370
     0
100
AcDbMText
 10
342.4030396602
 20
51.43321666589999
 30
0.0
 40
11.9
 41
0.0
 71
     1
 72
     1
  1
8
  7
SLDTEXTSTYLE1
 73
     1
 44
1.0
1001
ACAD
1000
MTEXTBEGIN
1070
    73
1070
     1
1070
    44
1040
1.0
1070
    74
1070
     0
1000
MTEXTEND
  0
MTEXT
  5
6CF
330
1F
100
AcDbEntity
  8
0
  6
Continuous
 62
     0
370
     0
100
AcDbMText
 10
410.4030396601999
 20
51.43321666589999
 30
0.0
 40
11.9
 41
0.0
 71
     1
 72
     1
  1
8
  7
SLDTEXTSTYLE1
 73
     1
 44
1.0
1001
ACAD
1000
MTEXTBEGIN
1070
    73
1070
     1
1070
    44
1040
1.0
1070
    74
1070
     0
1000
MTEXTEND
  0
MTEXT
  5
6D0
330
1F
100
AcDbEntity
  8
0
  6
Continuous
 62
     0
370
     0
100
AcDbMText
 10
474.0066506312
 20
51.43321666589999
 30
0.0
 40
11.9
 41
0.0
 71
     1
 72
     1
  1
10
  7
SLDTEXTSTYLE1
 73
     1
 44
1.0
1001
ACAD
1000
MTEXTBEGIN
1070
    73
1070
     1
1070
    44
1040
1.0
1070
    74
1070
     0
1000
MTEXTEND
  0
MTEXT
  5
6D1
330
1F
100
AcDbEntity
  8
0
  6
Continuous
 62
     0
370
     0
100
AcDbMText
 10
542.0066506311997
 20
51.43321666589999
 30
0.0
 40
11.9
 41
0.0
 71
     1
 72
     1
  1
10
  7
SLDTEXTSTYLE1
 73
     1
 44
1.0
1001
ACAD
1000
MTEXTBEGIN
1070
    73
1070
     1
1070
    44
1040
1.0
1070
    74
1070
     0
1000
MTEXTEND
  0
MTEXT
  5
6D2
330
1F
100
AcDbEntity
  8
0
  6
Continuous
 62
     0
370
     0
100
AcDbMText
 10
610.0066506311996
 20
51.43321666589999
 30
0.0
 40
11.9
 41
0.0
 71
     1
 72
     1
  1
12
  7
SLDTEXTSTYLE1
 73
     1
 44
1.0
1001
ACAD
1000
MTEXTBEGIN
1070
    73
1070
     1
1070
    44
1040
1.0
1070
    74
1070
     0
1000
MTEXTEND
  0
MTEXT
  5
6D3
330
1F
100
AcDbEntity
  8
0
  6
Continuous
 62
     0
370
     0
100
AcDbMText
 10
678.0066506311998
 20
51.43321666589999
 30
0.0
 40
11.9
 41
0.0
 71
     1
 72
     1
  1
12
  7
SLDTEXTSTYLE1
 73
     1
 44
1.0
1001
ACAD
1000
MTEXTBEGIN
1070
    73
1070
     1
1070
    44
1040
1.0
1070
    74
1070
     0
1000
MTEXTEND
  0
MTEXT
  5
6D4
330
1F
100
AcDbEntity
  8
0
  6
Continuous
 62
     0
370
     0
100
AcDbMText
 10
746.0066506311997
 20
51.43321666589999
 30
0.0
 40
11.9
 41
0.0
 71
     1
 72
     1
  1
14
  7
SLDTEXTSTYLE1
 73
     1
 44
1.0
1001
ACAD
1000
MTEXTBEGIN
1070
    73
1070
     1
1070
    44
1040
1.0
1070
    74
1070
     0
1000
MTEXTEND
  0
MTEXT
  5
6D5
330
1F
100
AcDbEntity
  8
0
  6
Continuous
 62
     0
370
     0
100
AcDbMText
 10
814.0066506311999
 20
51.43321666589999
 30
0.0
 40
11.9
 41
0.0
 71
     1
 72
     1
  1
14
  7
SLDTEXTSTYLE1
 73
     1
 44
1.0
1001
ACAD
1000
MTEXTBEGIN
1070
    73
1070
     1
1070
    44
1040
1.0
1070
    74
1070
     0
1000
MTEXTEND
  0
MTEXT
  5
6D6
330
1F
100
AcDbEntity
  8
0
  6
Continuous
 62
     0
370
     0
100
AcDbMText
 10
882.0066506311999
 20
51.43321666589999
 30
0.0
 40
11.9
 41
0.0
 71
     1
 72
     1
  1
16
  7
SLDTEXTSTYLE1
 73
     1
 44
1.0
1001
ACAD
1000
MTEXTBEGIN
1070
    73
1070
     1
1070
    44
1040
1.0
1070
    74
1070
     0
1000
MTEXTEND
  0
MTEXT
  5
6D7
330
1F
100
AcDbEntity
  8
0
  6
Continuous
 62
     0
370
     0
100
AcDbMText
 10
950.0066506311998
 20
51.43321666589999
 30
0.0
 40
11.9
 41
0.0
 71
     1
 72
     1
  1
16
  7
SLDTEXTSTYLE1
 73
     1
 44
1.0
1001
ACAD
1000
MTEXTBEGIN
1070
    73
1070
     1
1070
    44
1040
1.0
1070
    74
1070
     0
1000
MTEXTEND
  0
MTEXT
  5
6D8
330
1F
100
AcDbEntity
  8
0
  6
Continuous
 62
     0
370
     0
100
AcDbMText
 10
110.2855500978
 20
30.52665587940001
 30
0.0
 40
8.9958333333
 41
0.0
 71
     1
 72
     1
  1
\U+91cd\U+91cf(kg)
  7
SLDTEXTSTYLE1
 73
     1
 44
1.0
1001
ACAD
1000
MTEXTBEGIN
1070
    73
1070
     1
1070
    44
1040
1.0
1070
    74
1070
     0
1000
MTEXTEND
  0
MTEXT
  5
6D9
330
1F
100
AcDbEntity
  8
0
  6
Continuous
 62
     0
370
     0
100
AcDbMText
 10
270.0066506312
 20
31.03321666589998
 30
0.0
 40
11.9
 41
0.0
 71
     1
 72
     1
  1
2.2
  7
SLDTEXTSTYLE1
 73
     1
 44
1.0
1001
ACAD
1000
MTEXTBEGIN
1070
    73
1070
     1
1070
    44
1040
1.0
1070
    74
1070
     0
1000
MTEXTEND
  0
MTEXT
  5
6DA
330
1F
100
AcDbEntity
  8
0
  6
Continuous
 62
     0
370
     0
100
AcDbMText
 10
338.0066506312
 20
31.03321666589998
 30
0.0
 40
11.9
 41
0.0
 71
     1
 72
     1
  1
2.7
  7
SLDTEXTSTYLE1
 73
     1
 44
1.0
1001
ACAD
1000
MTEXTBEGIN
1070
    73
1070
     1
1070
    44
1040
1.0
1070
    74
1070
     0
1000
MTEXTEND
  0
MTEXT
  5
6DB
330
1F
100
AcDbEntity
  8
0
  6
Continuous
 62
     0
370
     0
100
AcDbMText
 10
406.0066506312
 20
31.03321666589998
 30
0.0
 40
11.9
 41
0.0
 71
     1
 72
     1
  1
3.2
  7
SLDTEXTSTYLE1
 73
     1
 44
1.0
1001
ACAD
1000
MTEXTBEGIN
1070
    73
1070
     1
1070
    44
1040
1.0
1070
    74
1070
     0
1000
MTEXTEND
  0
MTEXT
  5
6DC
330
1F
100
AcDbEntity
  8
0
  6
Continuous
 62
     0
370
     0
100
AcDbMText
 10
474.0066506312
 20
31.03321666589998
 30
0.0
 40
11.9
 41
0.0
 71
     1
 72
     1
  1
3.7
  7
SLDTEXTSTYLE1
 73
     1
 44
1.0
1001
ACAD
1000
MTEXTBEGIN
1070
    73
1070
     1
1070
    44
1040
1.0
1070
    74
1070
     0
1000
MTEXTEND
  0
MTEXT
  5
6DD
330
1F
100
AcDbEntity
  8
0
  6
Continuous
 62
     0
370
     0
100
AcDbMText
 10
542.0066506311997
 20
31.03321666589998
 30
0.0
 40
11.9
 41
0.0
 71
     1
 72
     1
  1
4.2
  7
SLDTEXTSTYLE1
 73
     1
 44
1.0
1001
ACAD
1000
MTEXTBEGIN
1070
    73
1070
     1
1070
    44
1040
1.0
1070
    74
1070
     0
1000
MTEXTEND
  0
MTEXT
  5
6DE
330
1F
100
AcDbEntity
  8
0
  6
Continuous
 62
     0
370
     0
100
AcDbMText
 10
610.0066506312
 20
31.03321666589998
 30
0.0
 40
11.9
 41
0.0
 71
     1
 72
     1
  1
4.7
  7
SLDTEXTSTYLE1
 73
     1
 44
1.0
1001
ACAD
1000
MTEXTBEGIN
1070
    73
1070
     1
1070
    44
1040
1.0
1070
    74
1070
     0
1000
MTEXTEND
  0
MTEXT
  5
6DF
330
1F
100
AcDbEntity
  8
0
  6
Continuous
 62
     0
370
     0
100
AcDbMText
 10
678.0066506312
 20
31.03321666589998
 30
0.0
 40
11.9
 41
0.0
 71
     1
 72
     1
  1
5.2
  7
SLDTEXTSTYLE1
 73
     1
 44
1.0
1001
ACAD
1000
MTEXTBEGIN
1070
    73
1070
     1
1070
    44
1040
1.0
1070
    74
1070
     0
1000
MTEXTEND
  0
MTEXT
  5
6E0
330
1F
100
AcDbEntity
  8
0
  6
Continuous
 62
     0
370
     0
100
AcDbMText
 10
746.0066506312
 20
31.03321666589998
 30
0.0
 40
11.9
 41
0.0
 71
     1
 72
     1
  1
5.7
  7
SLDTEXTSTYLE1
 73
     1
 44
1.0
1001
ACAD
1000
MTEXTBEGIN
1070
    73
1070
     1
1070
    44
1040
1.0
1070
    74
1070
     0
1000
MTEXTEND
  0
MTEXT
  5
6E1
330
1F
100
AcDbEntity
  8
0
  6
Continuous
 62
     0
370
     0
100
AcDbMText
 10
814.0066506311999
 20
31.03321666589998
 30
0.0
 40
11.9
 41
0.0
 71
     1
 72
     1
  1
6.2
  7
SLDTEXTSTYLE1
 73
     1
 44
1.0
1001
ACAD
1000
MTEXTBEGIN
1070
    73
1070
     1
1070
    44
1040
1.0
1070
    74
1070
     0
1000
MTEXTEND
  0
MTEXT
  5
6E2
330
1F
100
AcDbEntity
  8
0
  6
Continuous
 62
     0
370
     0
100
AcDbMText
 10
882.0066506312
 20
31.03321666589998
 30
0.0
 40
11.9
 41
0.0
 71
     1
 72
     1
  1
6.7
  7
SLDTEXTSTYLE1
 73
     1
 44
1.0
1001
ACAD
1000
MTEXTBEGIN
1070
    73
1070
     1
1070
    44
1040
1.0
1070
    74
1070
     0
1000
MTEXTEND
  0
MTEXT
  5
6E3
330
1F
100
AcDbEntity
  8
0
  6
Continuous
 62
     0
370
     0
100
AcDbMText
 10
950.0066506311998
 20
31.03321666589998
 30
0.0
 40
11.9
 41
0.0
 71
     1
 72
     1
  1
7.2
  7
SLDTEXTSTYLE1
 73
     1
 44
1.0
1001
ACAD
1000
MTEXTBEGIN
1070
    73
1070
     1
1070
    44
1040
1.0
1070
    74
1070
     0
1000
MTEXTEND
  0
LINE
  5
6ED
330
1F
100
AcDbEntity
  8
0
  6
Continuous
 62
     0
370
     0
100
AcDbLine
 10
992.7994286891999
 20
14.83310674270001
 30
0.0
 11
992.7994286891999
 21
161.3631404763
 31
0.0
  0
MTEXT
  5
6EF
330
1F
100
AcDbEntity
  8
0
  6
Continuous
 62
     0
370
     0
100
AcDbMText
 10
202.0066506312
 20
31.03321666589998
 30
0.0
 40
11.9
 41
0.0
 71
     1
 72
     1
  1
1.7
  7
SLDTEXTSTYLE1
 73
     1
 44
1.0
1001
ACAD
1000
MTEXTBEGIN
1070
    73
1070
     1
1070
    44
1040
1.0
1070
    74
1070
     0
1000
MTEXTEND
  0
MTEXT
  5
6F0
330
1F
100
AcDbEntity
  8
0
  6
Continuous
 62
     0
370
     0
100
AcDbMText
 10
206.4030396601999
 20
51.43321666589999
 30
0.0
 40
11.9
 41
0.0
 71
     1
 72
     1
  1
6
  7
SLDTEXTSTYLE1
 73
     1
 44
1.0
1001
ACAD
1000
MTEXTBEGIN
1070
    73
1070
     1
1070
    44
1040
1.0
1070
    74
1070
     0
1000
MTEXTEND
  0
MTEXT
  5
6F1
330
1F
100
AcDbEntity
  8
0
  6
Continuous
 62
     0
370
     0
100
AcDbMText
 10
202.0066506312
 20
71.8332166659
 30
0.0
 40
11.9
 41
0.0
 71
     1
 72
     1
  1
27
  7
SLDTEXTSTYLE1
 73
     1
 44
1.0
1001
ACAD
1000
MTEXTBEGIN
1070
    73
1070
     1
1070
    44
1040
1.0
1070
    74
1070
     0
1000
MTEXTEND
  0
MTEXT
  5
6F2
330
1F
100
AcDbEntity
  8
0
  6
Continuous
 62
     0
370
     0
100
AcDbMText
 10
206.4030396601999
 20
92.23321666590001
 30
0.0
 40
11.9
 41
0.0
 71
     1
 72
     1
  1
1
  7
SLDTEXTSTYLE1
 73
     1
 44
1.0
1001
ACAD
1000
MTEXTBEGIN
1070
    73
1070
     1
1070
    44
1040
1.0
1070
    74
1070
     0
1000
MTEXTEND
  0
MTEXT
  5
6F3
330
1F
100
AcDbEntity
  8
0
  6
Continuous
 62
     0
370
     0
100
AcDbMText
 10
197.610261998
 20
112.6332166659
 30
0.0
 40
11.9
 41
0.0
 71
     1
 72
     1
  1
172
  7
SLDTEXTSTYLE1
 73
     1
 44
1.0
1001
ACAD
1000
MTEXTBEGIN
1070
    73
1070
     1
1070
    44
1040
1.0
1070
    74
1070
     0
1000
MTEXTEND
  0
MTEXT
  5
6F4
330
1F
100
AcDbEntity
  8
0
  6
Continuous
 62
     0
370
     0
100
AcDbMText
 10
197.610261998
 20
133.0332166659
 30
0.0
 40
11.9
 41
0.0
 71
     1
 72
     1
  1
222
  7
SLDTEXTSTYLE1
 73
     1
 44
1.0
1001
ACAD
1000
MTEXTBEGIN
1070
    73
1070
     1
1070
    44
1040
1.0
1070
    74
1070
     0
1000
MTEXTEND
  0
MTEXT
  5
6F5
330
1F
100
AcDbEntity
  8
0
  6
Continuous
 62
     0
370
     0
100
AcDbMText
 10
197.610261998
 20
155.2982335327
 30
0.0
 40
11.9
 41
0.0
 71
     1
 72
     1
  1
50
  7
SLDTEXTSTYLE1
 73
     1
 44
1.0
1001
ACAD
1000
MTEXTBEGIN
1070
    73
1070
     1
1070
    44
1040
1.0
1070
    74
1070
     0
1000
MTEXTEND
  0
ENDSEC
  0
SECTION
  2
OBJECTS
  0
DICTIONARY
  5
C
330
0
100
AcDbDictionary
281
     1
  3
ACAD_COLOR
350
5E5
  3
ACAD_GROUP
350
D
  3
ACAD_LAYOUT
350
1A
  3
ACAD_MATERIAL
350
5E4
  3
ACAD_MLINESTYLE
350
17
  3
ACAD_PLOTSETTINGS
350
19
  3
ACAD_PLOTSTYLENAME
350
E
  3
AcDbVariableDictionary
350
65A
  0
DICTIONARY
  5
614
330
1F
100
AcDbDictionary
280
     1
281
     1
  0
DICTIONARY
  5
620
330
36
100
AcDbDictionary
280
     1
281
     1
  3
ACAD_SORTENTS
360
621
  0
DICTIONARY
  5
618
330
1F1
100
AcDbDictionary
280
     1
281
     1
  3
ACAD_SORTENTS
360
619
  0
DICTIONARY
  5
5E5
102
{ACAD_REACTORS
330
C
102
}
330
C
100
AcDbDictionary
281
     1
  0
DICTIONARY
  5
D
102
{ACAD_REACTORS
330
C
102
}
330
C
100
AcDbDictionary
281
     1
  0
DICTIONARY
  5
1A
102
{ACAD_REACTORS
330
C
102
}
330
C
100
AcDbDictionary
281
     1
  3
Layout1
350
1E
  3
Layout2
350
26
  3
Model
350
22
  0
DICTIONARY
  5
5E4
102
{ACAD_REACTORS
330
C
102
}
330
C
100
AcDbDictionary
281
     1
  0
DICTIONARY
  5
17
102
{ACAD_REACTORS
330
C
102
}
330
C
100
AcDbDictionary
281
     1
  3
Standard
350
18
  0
DICTIONARY
  5
19
102
{ACAD_REACTORS
330
C
102
}
330
C
100
AcDbDictionary
281
     1
  0
ACDBDICTIONARYWDFLT
  5
E
102
{ACAD_REACTORS
330
C
102
}
330
C
100
AcDbDictionary
281
     1
  3
Normal
350
F
100
AcDbDictionaryWithDefault
340
F
  0
DICTIONARY
  5
65A
102
{ACAD_REACTORS
330
C
102
}
330
C
100
AcDbDictionary
281
     1
  3
DIMASSOC
350
65B
  3
PROJECTNAME
350
65C
  0
SORTENTSTABLE
  5
621
102
{ACAD_REACTORS
330
620
102
}
330
620
100
AcDbSortentsTable
330
36
  0
SORTENTSTABLE
  5
619
102
{ACAD_REACTORS
330
618
102
}
330
618
100
AcDbSortentsTable
330
1F1
  0
LAYOUT
  5
1E
102
{ACAD_REACTORS
330
1A
102
}
330
1A
100
AcDbPlotSettings
  1

  2

  4

  6

 40
0.0
 41
0.0
 42
0.0
 43
0.0
 44
0.0
 45
0.0
 46
0.0
 47
0.0
 48
0.0
 49
0.0
140
0.0
141
0.0
142
1.0
143
1.0
 70
   688
 72
     0
 73
     0
 74
     5
  7

 75
    16
147
1.0
 76
     0
 77
     2
 78
   300
148
0.0
149
0.0
100
AcDbLayout
  1
Layout1
 70
     1
 71
     1
 10
0.0
 20
0.0
 11
420.0
 21
297.0
 12
0.0
 22
0.0
 32
0.0
 14
1.000000000000000E+20
 24
1.000000000000000E+20
 34
1.000000000000000E+20
 15
-1.000000000000000E+20
 25
-1.000000000000000E+20
 35
-1.000000000000000E+20
146
0.0
 13
0.0
 23
0.0
 33
0.0
 16
1.0
 26
0.0
 36
0.0
 17
0.0
 27
1.0
 37
0.0
 76
     0
330
1B
  0
LAYOUT
  5
26
102
{ACAD_REACTORS
330
1A
102
}
330
1A
100
AcDbPlotSettings
  1

  2

  4

  6

 40
0.0
 41
0.0
 42
0.0
 43
0.0
 44
0.0
 45
0.0
 46
0.0
 47
0.0
 48
0.0
 49
0.0
140
0.0
141
0.0
142
1.0
143
1.0
 70
   688
 72
     0
 73
     0
 74
     5
  7

 75
    16
147
1.0
 76
     0
 77
     2
 78
   300
148
0.0
149
0.0
100
AcDbLayout
  1
Layout2
 70
     1
 71
     2
 10
0.0
 20
0.0
 11
0.0
 21
0.0
 12
0.0
 22
0.0
 32
0.0
 14
0.0
 24
0.0
 34
0.0
 15
0.0
 25
0.0
 35
0.0
146
0.0
 13
0.0
 23
0.0
 33
0.0
 16
1.0
 26
0.0
 36
0.0
 17
0.0
 27
1.0
 37
0.0
 76
     0
330
23
  0
LAYOUT
  5
22
102
{ACAD_REACTORS
330
1A
102
}
330
1A
100
AcDbPlotSettings
  1

  2

  4

  6

 40
0.0
 41
0.0
 42
0.0
 43
0.0
 44
0.0
 45
0.0
 46
0.0
 47
0.0
 48
0.0
 49
0.0
140
0.0
141
0.0
142
1.0
143
1.0
 70
  1712
 72
     0
 73
     0
 74
     0
  7

 75
     0
147
1.0
 76
     0
 77
     2
 78
   300
148
0.0
149
0.0
100
AcDbLayout
  1
Model
 70
     1
 71
     0
 10
0.0
 20
0.0
 11
0.0
 21
0.0
 12
0.0
 22
0.0
 32
0.0
 14
0.0
 24
0.0
 34
0.0
 15
1009.8
 25
714.0
 35
0.0
146
0.0
 13
0.0
 23
0.0
 33
0.0
 16
1.0
 26
0.0
 36
0.0
 17
0.0
 27
1.0
 37
0.0
 76
     0
330
1F
  0
MLINESTYLE
  5
18
102
{ACAD_REACTORS
330
17
102
}
330
17
100
AcDbMlineStyle
  2
STANDARD
 70
     0
  3

 62
   256
 51
90.0
 52
90.0
 71
     2
 49
0.5
 62
   256
  6
BYLAYER
 49
-0.5
 62
   256
  6
BYLAYER
  0
ACDBPLACEHOLDER
  5
F
102
{ACAD_REACTORS
330
E
102
}
330
E
  0
DICTIONARYVAR
  5
65B
102
{ACAD_REACTORS
330
65A
102
}
330
65A
100
DictionaryVariables
280
     0
  1
1
  0
DICTIONARYVAR
  5
65C
102
{ACAD_REACTORS
330
65A
102
}
330
65A
100
DictionaryVariables
280
     0
  1

  0
ENDSEC
  0
EOF
